  0
SECTION
  2
HEADER
  9
$ACADVER
  1
AC1027
  9
$ACADMAINTVER
 70
     8
  9
$DWGCODEPAGE
  3
ANSI_1250
  9
$REQUIREDVERSIONS
160
                 0
  9
$INSBASE
 10
0.0
 20
0.0
 30
0.0
  9
$EXTMIN
 10
1.000000E+20
 20
1.000000E+20
 30
1.000000E+20
  9
$EXTMAX
 10
-1.000000E+20
 20
-1.000000E+20
 30
-1.000000E+20
  9
$LIMMIN
 10
0.0
 20
0.0
  9
$LIMMAX
 10
420.0
 20
297.0
  9
$ORTHOMODE
 70
     1
  9
$REGENMODE
 70
     1
  9
$FILLMODE
 70
     1
  9
$QTEXTMODE
 70
     0
  9
$MIRRTEXT
 70
     0
  9
$LTSCALE
 40
1.0
  9
$ATTMODE
 70
     1
  9
$TEXTSIZE
 40
2.5
  9
$TRACEWID
 40
1.0
  9
$TEXTSTYLE
  7
Standard
  9
$CLAYER
  8
floor
  9
$CELTYPE
  6
ByLayer
  9
$CECOLOR
 62
   256
  9
$CELTSCALE
 40
1.0
  9
$DISPSILH
 70
     0
  9
$DIMSCALE
 40
1.0
  9
$DIMASZ
 40
2.5
  9
$DIMEXO
 40
0.5
  9
$DIMDLI
 40
6.0
  9
$DIMRND
 40
0.0
  9
$DIMDLE
 40
0.0
  9
$DIMEXE
 40
0.0
  9
$DIMTP
 40
0.0
  9
$DIMTM
 40
0.0
  9
$DIMTXT
 40
250.0
  9
$DIMCEN
 40
2.5
  9
$DIMTSZ
 40
0.0
  9
$DIMTOL
 70
     0
  9
$DIMLIM
 70
     0
  9
$DIMTIH
 70
     0
  9
$DIMTOH
 70
     1
  9
$DIMSE1
 70
     0
  9
$DIMSE2
 70
     0
  9
$DIMTAD
 70
     0
  9
$DIMZIN
 70
     0
  9
$DIMBLK
  1

  9
$DIMASO
 70
     1
  9
$DIMSHO
 70
     1
  9
$DIMPOST
  1

  9
$DIMAPOST
  1

  9
$DIMALT
 70
     0
  9
$DIMALTD
 70
     2
  9
$DIMALTF
 40
25.4
  9
$DIMLFAC
 40
1.0
  9
$DIMTOFL
 70
     0
  9
$DIMTVP
 40
0.0
  9
$DIMTIX
 70
     0
  9
$DIMSOXD
 70
     0
  9
$DIMSAH
 70
     0
  9
$DIMBLK1
  1

  9
$DIMBLK2
  1

  9
$DIMSTYLE
  2
Standard
  9
$DIMCLRD
 70
     0
  9
$DIMCLRE
 70
     0
  9
$DIMCLRT
 70
     0
  9
$DIMTFAC
 40
1.0
  9
$DIMGAP
 40
1.0
  9
$DIMJUST
 70
     0
  9
$DIMSD1
 70
     0
  9
$DIMSD2
 70
     0
  9
$DIMTOLJ
 70
     1
  9
$DIMTZIN
 70
     0
  9
$DIMALTZ
 70
     0
  9
$DIMALTTZ
 70
     0
  9
$DIMUPT
 70
     0
  9
$DIMDEC
 70
     0
  9
$DIMTDEC
 70
     4
  9
$DIMALTU
 70
     2
  9
$DIMALTTD
 70
     2
  9
$DIMTXSTY
  7
Standard
  9
$DIMAUNIT
 70
     0
  9
$DIMADEC
 70
     0
  9
$DIMALTRND
 40
0.0
  9
$DIMAZIN
 70
     0
  9
$DIMDSEP
 70
    46
  9
$DIMATFIT
 70
     3
  9
$DIMFRAC
 70
     0
  9
$DIMLDRBLK
  1

  9
$DIMLUNIT
 70
     2
  9
$DIMLWD
 70
    -2
  9
$DIMLWE
 70
    -2
  9
$DIMTMOVE
 70
     0
  9
$DIMFXL
 40
1.0
  9
$DIMFXLON
 70
     0
  9
$DIMJOGANG
 40
0.785398
  9
$DIMTFILL
 70
     0
  9
$DIMTFILLCLR
 70
     0
  9
$DIMARCSYM
 70
     0
  9
$DIMLTYPE
  6
ByLayer
  9
$DIMLTEX1
  6
ByLayer
  9
$DIMLTEX2
  6
ByLayer
  9
$DIMTXTDIRECTION
 70
     0
  9
$LUNITS
 70
     2
  9
$LUPREC
 70
     4
  9
$SKETCHINC
 40
1.0
  9
$FILLETRAD
 40
0.0
  9
$AUNITS
 70
     0
  9
$AUPREC
 70
     0
  9
$MENU
  1
.
  9
$ELEVATION
 40
0.0
  9
$PELEVATION
 40
0.0
  9
$THICKNESS
 40
0.0
  9
$LIMCHECK
 70
     0
  9
$CHAMFERA
 40
0.0
  9
$CHAMFERB
 40
0.0
  9
$CHAMFERC
 40
0.0
  9
$CHAMFERD
 40
0.0
  9
$SKPOLY
 70
     0
  9
$TDCREATE
 40
2454082.950050046
  9
$TDUCREATE
 40
2454082.90838338
  9
$TDUPDATE
 40
2457085.073323738
  9
$TDUUPDATE
 40
2457085.031657072
  9
$TDINDWG
 40
0.0105753588
  9
$TDUSRTIMER
 40
0.0105751736
  9
$USRTIMER
 70
     1
  9
$ANGBASE
 50
0.0
  9
$ANGDIR
 70
     0
  9
$PDMODE
 70
     0
  9
$PDSIZE
 40
0.0
  9
$PLINEWID
 40
0.0
  9
$SPLFRAME
 70
     0
  9
$SPLINETYPE
 70
     6
  9
$SPLINESEGS
 70
     8
  9
$HANDSEED
  5
161
  9
$SURFTAB1
 70
     6
  9
$SURFTAB2
 70
     6
  9
$SURFTYPE
 70
     6
  9
$SURFU
 70
     6
  9
$SURFV
 70
     6
  9
$UCSBASE
  2

  9
$UCSNAME
  2

  9
$UCSORG
 10
0.0
 20
0.0
 30
0.0
  9
$UCSXDIR
 10
1.0
 20
0.0
 30
0.0
  9
$UCSYDIR
 10
0.0
 20
1.0
 30
0.0
  9
$UCSORTHOREF
  2

  9
$UCSORTHOVIEW
 70
     0
  9
$UCSORGTOP
 10
0.0
 20
0.0
 30
0.0
  9
$UCSORGBOTTOM
 10
0.0
 20
0.0
 30
0.0
  9
$UCSORGLEFT
 10
0.0
 20
0.0
 30
0.0
  9
$UCSORGRIGHT
 10
0.0
 20
0.0
 30
0.0
  9
$UCSORGFRONT
 10
0.0
 20
0.0
 30
0.0
  9
$UCSORGBACK
 10
0.0
 20
0.0
 30
0.0
  9
$PUCSBASE
  2

  9
$PUCSNAME
  2

  9
$PUCSORG
 10
0.0
 20
0.0
 30
0.0
  9
$PUCSXDIR
 10
1.0
 20
0.0
 30
0.0
  9
$PUCSYDIR
 10
0.0
 20
1.0
 30
0.0
  9
$PUCSORTHOREF
  2

  9
$PUCSORTHOVIEW
 70
     0
  9
$PUCSORGTOP
 10
0.0
 20
0.0
 30
0.0
  9
$PUCSORGBOTTOM
 10
0.0
 20
0.0
 30
0.0
  9
$PUCSORGLEFT
 10
0.0
 20
0.0
 30
0.0
  9
$PUCSORGRIGHT
 10
0.0
 20
0.0
 30
0.0
  9
$PUCSORGFRONT
 10
0.0
 20
0.0
 30
0.0
  9
$PUCSORGBACK
 10
0.0
 20
0.0
 30
0.0
  9
$USERI1
 70
     0
  9
$USERI2
 70
     0
  9
$USERI3
 70
     0
  9
$USERI4
 70
     0
  9
$USERI5
 70
     0
  9
$USERR1
 40
0.0
  9
$USERR2
 40
0.0
  9
$USERR3
 40
0.0
  9
$USERR4
 40
0.0
  9
$USERR5
 40
0.0
  9
$WORLDVIEW
 70
     1
  9
$SHADEDGE
 70
     3
  9
$SHADEDIF
 70
    70
  9
$TILEMODE
 70
     1
  9
$MAXACTVP
 70
    64
  9
$PINSBASE
 10
0.0
 20
0.0
 30
0.0
  9
$PLIMCHECK
 70
     0
  9
$PEXTMIN
 10
0.0
 20
0.0
 30
0.0
  9
$PEXTMAX
 10
0.0
 20
0.0
 30
0.0
  9
$PLIMMIN
 10
0.0
 20
0.0
  9
$PLIMMAX
 10
12.0
 20
9.0
  9
$UNITMODE
 70
     0
  9
$VISRETAIN
 70
     1
  9
$PLINEGEN
 70
     0
  9
$PSLTSCALE
 70
     0
  9
$TREEDEPTH
 70
  3020
  9
$CMLSTYLE
  2
Standard
  9
$CMLJUST
 70
     0
  9
$CMLSCALE
 40
20.0
  9
$PROXYGRAPHICS
 70
     1
  9
$MEASUREMENT
 70
     1
  9
$CELWEIGHT
370
    -1
  9
$ENDCAPS
280
     0
  9
$JOINSTYLE
280
     0
  9
$LWDISPLAY
290
     1
  9
$INSUNITS
 70
     4
  9
$HYPERLINKBASE
  1

  9
$STYLESHEET
  1

  9
$XEDIT
290
     1
  9
$CEPSNTYPE
380
     0
  9
$PSTYLEMODE
290
     1
  9
$FINGERPRINTGUID
  2
{78B0F746-B111-4909-95E5-2EF5CBA97683}
  9
$VERSIONGUID
  2
{88884FFE-1838-4093-901C-E4DA6EFB818F}
  9
$EXTNAMES
290
     1
  9
$PSVPSCALE
 40
0.0
  9
$OLESTARTUP
290
     0
  9
$SORTENTS
280
   127
  9
$INDEXCTL
280
     0
  9
$HIDETEXT
280
     1
  9
$XCLIPFRAME
280
     0
  9
$HALOGAP
280
     0
  9
$OBSCOLOR
 70
   257
  9
$OBSLTYPE
280
     0
  9
$INTERSECTIONDISPLAY
280
     0
  9
$INTERSECTIONCOLOR
 70
   257
  9
$DIMASSOC
280
     2
  9
$PROJECTNAME
  1

  9
$CAMERADISPLAY
290
     0
  9
$LENSLENGTH
 40
50.0
  9
$CAMERAHEIGHT
 40
0.0
  9
$STEPSPERSEC
 40
2.0
  9
$STEPSIZE
 40
6.0
  9
$3DDWFPREC
 40
2.0
  9
$PSOLWIDTH
 40
5.0
  9
$PSOLHEIGHT
 40
80.0
  9
$LOFTANG1
 40
1.570796
  9
$LOFTANG2
 40
1.570796
  9
$LOFTMAG1
 40
0.0
  9
$LOFTMAG2
 40
0.0
  9
$LOFTPARAM
 70
     7
  9
$LOFTNORMALS
280
     1
  9
$LATITUDE
 40
37.795
  9
$LONGITUDE
 40
-122.394
  9
$NORTHDIRECTION
 40
0.0
  9
$TIMEZONE
 70
 -8000
  9
$LIGHTGLYPHDISPLAY
280
     1
  9
$TILEMODELIGHTSYNCH
280
     1
  9
$CMATERIAL
347
10
  9
$SOLIDHIST
280
     1
  9
$SHOWHIST
280
     1
  9
$DWFFRAME
280
     2
  9
$DGNFRAME
280
     0
  9
$REALWORLDSCALE
290
     1
  9
$INTERFERECOLOR
 62
     1
  9
$CSHADOW
280
     0
  9
$SHADOWPLANELOCATION
 40
0.0
  0
ENDSEC
  0
SECTION
  2
CLASSES
  0
CLASS
  1
ACDBDICTIONARYWDFLT
  2
AcDbDictionaryWithDefault
  3
ObjectDBX Classes
 90
        0
 91
       10
280
     0
281
     0
  0
CLASS
  1
MATERIAL
  2
AcDbMaterial
  3
ObjectDBX Classes
 90
     1153
 91
        9
280
     0
281
     0
  0
CLASS
  1
SORTENTSTABLE
  2
AcDbSortentsTable
  3
ObjectDBX Classes
 90
        0
 91
        7
280
     0
281
     0
  0
CLASS
  1
LAYOUTPRINTCONFIG
  2
CAcLayoutPrintConfig
  3
"CSD_APP"
 90
     4095
 91
        6
280
     0
281
     1
  0
CLASS
  1
SUN
  2
AcDbSun
  3
SCENEOE
 90
     1153
 91
        9
280
     0
281
     0
  0
CLASS
  1
SCALE
  2
AcDbScale
  3
ObjectDBX Classes
 90
     1153
 91
        9
280
     0
281
     0
  0
CLASS
  1
McDbContainer2
  2
McDbContainer2
  3
NanoSPDS
 90
      893
 91
        5
280
     0
281
     0
  0
CLASS
  1
VISUALSTYLE
  2
AcDbVisualStyle
  3
ObjectDBX Classes
 90
     4095
 91
        9
280
     0
281
     0
  0
CLASS
  1
DICTIONARYVAR
  2
AcDbDictionaryVar
  3
ObjectDBX Classes
 90
        0
 91
        7
280
     0
281
     0
  0
ENDSEC
  0
SECTION
  2
TABLES
  0
TABLE
  2
VPORT
  5
2B
330
0
100
AcDbSymbolTable
 70
    34
  0
VPORT
  5
30
330
2B
100
AcDbSymbolTableRecord
100
AcDbViewportTableRecord
  2
*Active
 70
     0
 10
0.0
 20
0.5
 11
0.5
 21
1.0
 12
2508.879649
 22
6538.994009
 13
0.0
 23
0.0
 14
10.0
 24
10.0
 15
10.0
 25
10.0
 16
0.0
 26
0.0
 36
1.0
 17
210.0
 27
148.5
 37
0.0
 40
21432.345384
 41
2.095469
 42
50.0
 43
0.0
 44
0.0
 50
0.0
 51
0.0
 71
    16
 72
  1000
 73
     1
 74
     2
 75
     1
 76
     0
 77
     0
 78
     0
281
     0
 65
     1
110
0.0
120
0.0
130
0.0
111
1.0
121
0.0
131
0.0
112
0.0
122
1.0
132
0.0
 79
     0
146
0.0
 60
     2
 61
     5
292
     1
282
     1
141
0.0
142
0.0
 63
   250
421
  3355443
361
31
  0
VPORT
  5
32
330
2B
100
AcDbSymbolTableRecord
100
AcDbViewportTableRecord
  2
*Active
 70
     0
 10
0.5
 20
0.0
 11
1.0
 21
0.5
 12
10169.071569
 22
1525.225242
 13
0.0
 23
0.0
 14
10.0
 24
10.0
 15
10.0
 25
10.0
 16
1.0
 26
-1.0
 36
1.0
 17
210.0
 27
148.5
 37
0.0
 40
22694.631782
 41
2.095469
 42
50.0
 43
0.0
 44
0.0
 50
0.0
 51
0.0
 71
    16
 72
  1000
 73
     1
 74
     2
 75
     1
 76
     0
 77
     0
 78
     0
281
     0
 65
     1
110
0.0
120
0.0
130
0.0
111
1.0
121
0.0
131
0.0
112
0.0
122
1.0
132
0.0
 79
     0
146
0.0
 60
     2
 61
     5
292
     1
282
     1
141
0.0
142
0.0
 63
   250
421
  3355443
361
33
  0
VPORT
  5
34
330
2B
100
AcDbSymbolTableRecord
100
AcDbViewportTableRecord
  2
*Active
 70
     0
 10
0.5
 20
0.5
 11
1.0
 21
1.0
 12
5258.631258
 22
3800.0
 13
0.0
 23
0.0
 14
10.0
 24
10.0
 15
10.0
 25
10.0
 16
1.0
 26
0.0
 36
0.0
 17
210.0
 27
148.5
 37
0.0
 40
10082.967196
 41
2.095469
 42
50.0
 43
0.0
 44
0.0
 50
0.0
 51
0.0
 71
    16
 72
  1000
 73
     1
 74
     3
 75
     1
 76
     0
 77
     0
 78
     0
281
     0
 65
     1
110
0.0
120
0.0
130
0.0
111
1.0
121
0.0
131
0.0
112
0.0
122
1.0
132
0.0
 79
     0
146
0.0
 60
     2
 61
     5
292
     1
282
     1
141
0.0
142
0.0
 63
   250
421
  3355443
  0
VPORT
  5
35
330
2B
100
AcDbSymbolTableRecord
100
AcDbViewportTableRecord
  2
*Active
 70
     0
 10
0.0
 20
0.0
 11
0.5
 21
0.5
 12
9102.803836
 22
3800.0
 13
0.0
 23
0.0
 14
10.0
 24
10.0
 15
10.0
 25
10.0
 16
0.0
 26
-1.0
 36
0.0
 17
210.0
 27
148.5
 37
0.0
 40
9066.28421
 41
2.095469
 42
50.0
 43
0.0
 44
0.0
 50
0.0
 51
0.0
 71
    16
 72
  1000
 73
     1
 74
     3
 75
     1
 76
     0
 77
     0
 78
     0
281
     0
 65
     1
110
0.0
120
0.0
130
0.0
111
1.0
121
0.0
131
0.0
112
0.0
122
1.0
132
0.0
 79
     0
146
0.0
 60
     2
 61
     5
292
     1
282
     1
141
0.0
142
0.0
 63
   250
421
  3355443
  0
ENDTAB
  0
TABLE
  2
LTYPE
  5
B
330
0
100
AcDbSymbolTable
 70
     1
  0
LTYPE
  5
C
330
B
100
AcDbSymbolTableRecord
100
AcDbLinetypeTableRecord
  2
ByBlock
 70
     0
  3

 72
    65
 73
     0
 40
0.0
  0
LTYPE
  5
D
330
B
100
AcDbSymbolTableRecord
100
AcDbLinetypeTableRecord
  2
ByLayer
 70
     0
  3

 72
    65
 73
     0
 40
0.0
  0
LTYPE
  5
A
330
B
100
AcDbSymbolTableRecord
100
AcDbLinetypeTableRecord
  2
Continuous
 70
     0
  3
Solid line
 72
    65
 73
     0
 40
0.0
  0
ENDTAB
  0
TABLE
  2
LAYER
  5
2
330
0
100
AcDbSymbolTable
 70
     5
  0
LAYER
  5
1A
330
2
100
AcDbSymbolTableRecord
100
AcDbLayerTableRecord
  2
0
 70
     0
 62
     7
  6
Continuous
370
    -3
390
3
347
6
348
0
  0
LAYER
  5
7B
330
2
100
AcDbSymbolTableRecord
100
AcDbLayerTableRecord
  2
Defpoints
 70
     0
 62
     7
  6
Continuous
290
     0
370
    -3
390
3
347
6
348
0
  0
LAYER
  5
70
330
2
100
AcDbSymbolTableRecord
100
AcDbLayerTableRecord
  2
DIMENSION
 70
     0
 62
     3
  6
Continuous
370
    25
390
3
347
6
348
0
  0
LAYER
  5
61
330
2
100
AcDbSymbolTableRecord
100
AcDbLayerTableRecord
  2
top
 70
     0
 62
     1
  6
Continuous
370
    25
390
3
347
6
348
0
  0
LAYER
  5
1
330
2
100
AcDbSymbolTableRecord
100
AcDbLayerTableRecord
  2
floor
 70
     0
 62
     7
  6
Continuous
370
    25
390
3
347
6
348
0
  0
ENDTAB
  0
TABLE
  2
STYLE
  5
F
330
0
100
AcDbSymbolTable
 70
     3
  0
STYLE
  5
E
330
F
100
AcDbSymbolTableRecord
100
AcDbTextStyleTableRecord
  2
Standard
 70
     0
 40
0.0
 41
1.0
 50
0.0
 71
     0
 42
2.5
  3
txt.shx
  4

  0
ENDTAB
  0
TABLE
  2
VIEW
  5
29
330
0
100
AcDbSymbolTable
 70
     0
  0
ENDTAB
  0
TABLE
  2
UCS
  5
2A
330
0
100
AcDbSymbolTable
 70
     0
  0
ENDTAB
  0
TABLE
  2
APPID
  5
9
330
0
100
AcDbSymbolTable
 70
    15
  0
APPID
  5
8
330
9
100
AcDbSymbolTableRecord
100
AcDbRegAppTableRecord
  2
ACAD
 70
     0
  0
APPID
  5
20
330
9
100
AcDbSymbolTableRecord
100
AcDbRegAppTableRecord
  2
ACAD_PSEXT
 70
     0
  0
APPID
  5
159
330
9
100
AcDbSymbolTableRecord
100
AcDbRegAppTableRecord
  2
MC_VERSION_DATA
 70
     0
  0
ENDTAB
  0
TABLE
  2
DIMSTYLE
  5
12
330
0
100
AcDbSymbolTable
 70
     1
100
AcDbDimStyleTable
  0
DIMSTYLE
105
11
102
{ACAD_REACTORS
330
6D
330
135
330
7F
330
8F
330
9F
330
B0
330
C8
330
DF
330
F7
102
}
330
12
100
AcDbSymbolTableRecord
100
AcDbDimStyleTableRecord
  2
Standard
 70
     0
 40
100.0
 41
2.5
 42
0.5
 43
6.0
 44
0.0
 50
45.000001
 73
     0
140
2.5
141
2.5
143
25.4
147
1.0
178
     0
340
E
345
D
346
D
347
D
  0
ENDTAB
  0
TABLE
  2
BLOCK_RECORD
  5
15
330
0
100
AcDbSymbolTable
 70
   138
  0
BLOCK_RECORD
  5
16
102
{ACAD_XDICTIONARY
360
17
102
}
330
15
100
AcDbSymbolTableRecord
100
AcDbBlockTableRecord
  2
*Model_Space
340
1C
 70
     0
280
     1
281
     0
  0
BLOCK_RECORD
  5
21
102
{ACAD_XDICTIONARY
360
22
102
}
330
15
100
AcDbSymbolTableRecord
100
AcDbBlockTableRecord
  2
*Paper_Space
340
26
 70
     0
280
     1
281
     0
  0
BLOCK_RECORD
  5
145
330
15
100
AcDbSymbolTableRecord
100
AcDbBlockTableRecord
  2
*Paper_Space0
340
148
 70
     0
280
     1
281
     0
  0
BLOCK_RECORD
  5
150
330
15
100
AcDbSymbolTableRecord
100
AcDbBlockTableRecord
  2
*Paper_Space4
340
153
 70
     0
280
     1
281
     0
  0
BLOCK_RECORD
  5
10C
330
15
100
AcDbSymbolTableRecord
100
AcDbBlockTableRecord
  2
*Paper_Space5
340
10F
 70
     0
280
     1
281
     0
  0
BLOCK_RECORD
  5
14B
330
15
100
AcDbSymbolTableRecord
100
AcDbBlockTableRecord
  2
*Paper_Space6
340
14E
 70
     0
280
     1
281
     0
  0
BLOCK_RECORD
  5
118
330
15
100
AcDbSymbolTableRecord
100
AcDbBlockTableRecord
  2
*Paper_Space7
340
11B
 70
     0
280
     1
281
     0
  0
BLOCK_RECORD
  5
112
330
15
100
AcDbSymbolTableRecord
100
AcDbBlockTableRecord
  2
*Paper_Space8
340
115
 70
     0
280
     1
281
     0
  0
BLOCK_RECORD
  5
71
330
15
100
AcDbSymbolTableRecord
100
AcDbBlockTableRecord
  2
*D66
340
0
 70
     0
280
     1
281
     0
  0
BLOCK_RECORD
  5
138
330
15
100
AcDbSymbolTableRecord
100
AcDbBlockTableRecord
  2
*D70
340
0
 70
     0
280
     1
281
     0
  0
BLOCK_RECORD
  5
82
330
15
100
AcDbSymbolTableRecord
100
AcDbBlockTableRecord
  2
*D72
340
0
 70
     0
280
     1
281
     0
  0
BLOCK_RECORD
  5
92
330
15
100
AcDbSymbolTableRecord
100
AcDbBlockTableRecord
  2
*D74
340
0
 70
     0
280
     1
281
     0
  0
BLOCK_RECORD
  5
A2
330
15
100
AcDbSymbolTableRecord
100
AcDbBlockTableRecord
  2
*D76
340
0
 70
     0
280
     1
281
     0
  0
BLOCK_RECORD
  5
B3
330
15
100
AcDbSymbolTableRecord
100
AcDbBlockTableRecord
  2
*D102
340
0
 70
     0
280
     1
281
     0
  0
BLOCK_RECORD
  5
CB
330
15
100
AcDbSymbolTableRecord
100
AcDbBlockTableRecord
  2
*D114
340
0
 70
     0
280
     1
281
     0
  0
BLOCK_RECORD
  5
E2
330
15
100
AcDbSymbolTableRecord
100
AcDbBlockTableRecord
  2
*D130
340
0
 70
     0
280
     1
281
     0
  0
BLOCK_RECORD
  5
FA
330
15
100
AcDbSymbolTableRecord
100
AcDbBlockTableRecord
  2
*D136
340
0
 70
     0
280
     1
281
     0
  0
ENDTAB
  0
ENDSEC
  0
SECTION
  2
BLOCKS
  0
BLOCK
  5
19
330
16
100
AcDbEntity
  8
0
100
AcDbBlockBegin
  2
*Model_Space
 70
     0
 10
0.0
 20
0.0
 30
0.0
  3
*Model_Space
  1
*Model_Space
  0
ENDBLK
  5
1B
330
16
100
AcDbEntity
  8
0
100
AcDbBlockEnd
  0
BLOCK
  5
24
330
21
100
AcDbEntity
 67
     1
  8
0
100
AcDbBlockBegin
  2
*Paper_Space
 70
     0
 10
0.0
 20
0.0
 30
0.0
  3
*Paper_Space
  1
*Paper_Space
  0
ENDBLK
  5
25
330
21
100
AcDbEntity
 67
     1
  8
0
100
AcDbBlockEnd
  0
BLOCK
  5
146
330
145
100
AcDbEntity
  8
0
100
AcDbBlockBegin
  2
*Paper_Space0
 70
     0
 10
0.0
 20
0.0
 30
0.0
  3
*Paper_Space0
  1
*Paper_Space0
  0
VIEWPORT
  5
149
330
145
100
AcDbEntity
  8
0
 48
100.0
100
AcDbViewport
 10
0.0
 20
0.0
 30
0.0
 40
1018.637919
 41
486.114466
 68
     1
 69
     1
 12
328.692132
 22
196.71883
 13
0.0
 23
0.0
 14
10.0
 24
10.0
 15
10.0
 25
10.0
 16
0.0
 26
0.0
 36
1.0
 17
0.0
 27
0.0
 37
0.0
 42
50.0
 43
0.0
 44
0.0
 45
486.114466
 50
0.0
 51
0.0
 72
   100
 90
   557168
  1

281
     0
 71
     1
 74
     0
110
0.0
120
0.0
130
0.0
111
1.0
121
0.0
131
0.0
112
0.0
122
1.0
132
0.0
 79
     0
146
0.0
170
     0
 61
     5
348
10A
292
     1
282
     1
141
0.0
142
0.0
 63
   256
361
14A
  0
ENDBLK
  5
147
330
145
100
AcDbEntity
  8
0
100
AcDbBlockEnd
  0
BLOCK
  5
151
330
150
100
AcDbEntity
  8
0
100
AcDbBlockBegin
  2
*Paper_Space4
 70
     0
 10
0.0
 20
0.0
 30
0.0
  3
*Paper_Space4
  1
*Paper_Space4
  0
VIEWPORT
  5
154
330
150
100
AcDbEntity
  8
0
 48
100.0
100
AcDbViewport
 10
0.0
 20
0.0
 30
0.0
 40
1715.87676
 41
992.070339
 68
     1
 69
     1
 12
497.20797
 22
380.27835
 13
0.0
 23
0.0
 14
10.0
 24
10.0
 15
10.0
 25
10.0
 16
0.0
 26
0.0
 36
1.0
 17
0.0
 27
0.0
 37
0.0
 42
50.0
 43
0.0
 44
0.0
 45
992.070339
 50
0.0
 51
0.0
 72
   100
 90
   557168
  1

281
     0
 71
     1
 74
     0
110
0.0
120
0.0
130
0.0
111
1.0
121
0.0
131
0.0
112
0.0
122
1.0
132
0.0
 79
     0
146
0.0
170
     0
 61
     5
348
10A
292
     1
282
     1
141
0.0
142
0.0
 63
   256
  0
ENDBLK
  5
152
330
150
100
AcDbEntity
  8
0
100
AcDbBlockEnd
  0
BLOCK
  5
10D
330
10C
100
AcDbEntity
  8
0
100
AcDbBlockBegin
  2
*Paper_Space5
 70
     0
 10
0.0
 20
0.0
 30
0.0
  3
*Paper_Space5
  1
*Paper_Space5
  0
VIEWPORT
  5
110
330
10C
100
AcDbEntity
  8
0
 48
100.0
100
AcDbViewport
 10
0.0
 20
0.0
 30
0.0
 40
499.13258
 41
238.196088
 68
     1
 69
     1
 12
128.5
 22
97.5
 13
0.0
 23
0.0
 14
10.0
 24
10.0
 15
10.0
 25
10.0
 16
0.0
 26
0.0
 36
1.0
 17
0.0
 27
0.0
 37
0.0
 42
50.0
 43
0.0
 44
0.0
 45
238.196088
 50
0.0
 51
0.0
 72
   100
 90
   557168
  1

281
     0
 71
     1
 74
     0
110
0.0
120
0.0
130
0.0
111
1.0
121
0.0
131
0.0
112
0.0
122
1.0
132
0.0
 79
     0
146
0.0
170
     0
 61
     5
348
10A
292
     1
282
     1
141
0.0
142
0.0
 63
   256
361
111
  0
ENDBLK
  5
10E
330
10C
100
AcDbEntity
  8
0
100
AcDbBlockEnd
  0
BLOCK
  5
14C
330
14B
100
AcDbEntity
  8
0
100
AcDbBlockBegin
  2
*Paper_Space6
 70
     0
 10
0.0
 20
0.0
 30
0.0
  3
*Paper_Space6
  1
*Paper_Space6
  0
VIEWPORT
  5
14F
330
14B
100
AcDbEntity
  8
0
 48
100.0
100
AcDbViewport
 10
0.0
 20
0.0
 30
0.0
 40
1201.113732
 41
694.449237
 68
     1
 69
     1
 12
454.893705
 22
285.342469
 13
0.0
 23
0.0
 14
10.0
 24
10.0
 15
10.0
 25
10.0
 16
0.0
 26
0.0
 36
1.0
 17
0.0
 27
0.0
 37
0.0
 42
50.0
 43
0.0
 44
0.0
 45
694.449237
 50
0.0
 51
0.0
 72
   100
 90
   557168
  1

281
     0
 71
     1
 74
     0
110
0.0
120
0.0
130
0.0
111
1.0
121
0.0
131
0.0
112
0.0
122
1.0
132
0.0
 79
     0
146
0.0
170
     0
 61
     5
348
10A
292
     1
282
     1
141
0.0
142
0.0
 63
   256
  0
ENDBLK
  5
14D
330
14B
100
AcDbEntity
  8
0
100
AcDbBlockEnd
  0
BLOCK
  5
119
330
118
100
AcDbEntity
  8
0
100
AcDbBlockBegin
  2
*Paper_Space7
 70
     0
 10
0.0
 20
0.0
 30
0.0
  3
*Paper_Space7
  1
*Paper_Space7
  0
VIEWPORT
  5
11C
330
118
100
AcDbEntity
  8
0
 48
100.0
100
AcDbViewport
 10
0.0
 20
0.0
 30
0.0
 40
713.046543
 41
340.280126
 68
     1
 69
     1
 12
213.910905
 22
130.914724
 13
0.0
 23
0.0
 14
10.0
 24
10.0
 15
10.0
 25
10.0
 16
0.0
 26
0.0
 36
1.0
 17
0.0
 27
0.0
 37
0.0
 42
50.0
 43
0.0
 44
0.0
 45
340.280126
 50
0.0
 51
0.0
 72
   100
 90
   557168
  1

281
     0
 71
     1
 74
     0
110
0.0
120
0.0
130
0.0
111
1.0
121
0.0
131
0.0
112
0.0
122
1.0
132
0.0
 79
     0
146
0.0
170
     0
 61
     5
348
10A
292
     1
282
     1
141
0.0
142
0.0
 63
   256
361
11D
  0
LINE
  5
11E
330
118
100
AcDbEntity
  8
floor
100
AcDbLine
 10
16730.0
 20
16551.51628
 30
0.0
 11
3110.0
 21
16551.51628
 31
0.0
  0
LINE
  5
11F
330
118
100
AcDbEntity
  8
floor
100
AcDbLine
 10
16730.5
 20
11901.51628
 30
0.0
 11
2172.302483
 21
11901.51628
 31
0.0
  0
LINE
  5
120
330
118
100
AcDbEntity
  8
0
100
AcDbLine
 10
430.0
 20
3261.51628
 30
0.0
 11
436.208661
 21
966.704852
 31
0.0
  0
LINE
  5
121
330
118
100
AcDbEntity
  8
0
100
AcDbLine
 10
6064.959828
 20
3261.51628
 30
0.0
 11
6064.959828
 21
180.0
 31
0.0
  0
LWPOLYLINE
  5
122
330
118
100
AcDbEntity
  8
floor
100
AcDbPolyline
 90
       17
 70
     0
 43
0.0
 10
851.910472
 20
3861.51628
 10
1030.0
 20
3861.51628
 10
1030.0
 20
3561.51628
 10
5862.500028
 20
3561.51628
 10
5862.500028
 20
3861.51628
 10
6462.500028
 20
3861.51628
 10
6462.500028
 20
3561.51628
 10
9920.000028
 20
3561.51628
 10
9920.000028
 20
11601.51628
 10
6462.500028
 20
11601.51628
 10
6462.500028
 20
11301.51628
 10
5862.500028
 20
11301.51628
 10
5862.500028
 20
11601.51628
 10
2772.302483
 20
11601.51628
 10
2772.302483
 20
11301.51628
 10
2351.988504
 20
11301.51628
 10
851.910472
 20
3861.51628
  0
LWPOLYLINE
  5
123
330
118
100
AcDbEntity
  8
floor
100
AcDbPolyline
 90
        5
 70
     0
 43
0.0
 10
10220.000028
 20
11601.51628
 10
10220.000028
 20
3561.51628
 10
14220.0
 20
3561.51628
 10
14220.0
 20
11601.51628
 10
10220.000028
 20
11601.51628
  0
LWPOLYLINE
  5
124
330
118
100
AcDbEntity
  8
floor
100
AcDbPolyline
 90
        5
 70
     0
 43
0.0
 10
14520.0
 20
11601.51628
 10
14520.0
 20
3561.51628
 10
16430.0
 20
3561.51628
 10
16430.0
 20
11601.51628
 10
14520.0
 20
11601.51628
  0
LWPOLYLINE
  5
125
330
118
100
AcDbEntity
  8
floor
100
AcDbPolyline
 90
        4
 70
     0
 43
0.0
 10
430.0
 20
3262.01628
 10
6064.959828
 20
3261.51628
 10
16730.0
 20
3262.146972
 10
16730.5
 20
11901.51628
  0
LINE
  5
126
330
118
100
AcDbEntity
  8
floor
100
AcDbLine
 10
430.0
 20
3261.51628
 30
0.0
 11
2172.302483
 21
11901.51628
 31
0.0
  0
LWPOLYLINE
  5
127
330
118
100
AcDbEntity
  8
floor
100
AcDbPolyline
 90
        4
 70
     0
 43
0.0
 10
2472.962538
 20
11901.51628
 10
3350.02429
 20
16251.51628
 10
16430.0
 20
16251.51628
 10
16430.0
 20
11901.51628
  0
LWPOLYLINE
  5
128
330
118
100
AcDbEntity
  8
floor
100
AcDbPolyline
 90
        4
 70
     0
 43
0.0
 10
2172.302483
 20
11901.51628
 10
3110.0
 20
16551.51628
 10
16730.0
 20
16551.51628
 10
16730.5
 20
11901.51628
  0
LINE
  5
129
330
118
100
AcDbEntity
  8
top
100
AcDbLine
 10
16730.0
 20
3262.146972
 30
0.0
 11
16730.0
 21
3262.146972
 31
4220.0
  0
LINE
  5
12A
330
118
100
AcDbEntity
  8
top
100
AcDbLine
 10
16730.5
 20
11901.51628
 30
0.0
 11
16730.5
 21
11901.51628
 31
4220.0
  0
LINE
  5
12B
330
118
100
AcDbEntity
  8
top
100
AcDbLine
 10
430.0
 20
3262.01628
 30
0.0
 11
430.0
 21
3262.01628
 31
4220.0
  0
LINE
  5
12C
330
118
100
AcDbEntity
  8
top
100
AcDbLine
 10
2172.302483
 20
11901.51628
 30
0.0
 11
2172.302483
 21
11901.51628
 31
4220.0
  0
LINE
  5
12D
330
118
100
AcDbEntity
  8
top
100
AcDbLine
 10
1301.151242
 20
7581.51628
 30
7600.0
 11
16731.0
 21
7581.51628
 31
7600.0
  0
LWPOLYLINE
  5
12E
330
118
100
AcDbEntity
  8
floor
100
AcDbPolyline
 90
        2
 70
     0
 43
0.0
 10
16731.0
 20
7581.51628
 10
16731.0
 20
7581.51628
  0
LINE
  5
12F
330
118
100
AcDbEntity
  8
top
100
AcDbLine
 10
16731.0
 20
7581.51628
 30
7600.0
 11
16730.0
 21
3262.146972
 31
4220.0
  0
LINE
  5
130
102
{ACAD_REACTORS
330
137
102
}
330
118
100
AcDbEntity
  8
top
100
AcDbLine
 10
16730.0
 20
3262.146972
 30
4220.0
 11
430.0
 21
3262.01628
 31
4220.0
  0
LINE
  5
131
330
118
100
AcDbEntity
  8
top
100
AcDbLine
 10
430.0
 20
3262.01628
 30
4220.0
 11
1301.151242
 21
7581.51628
 31
7600.0
  0
LINE
  5
132
330
118
100
AcDbEntity
  8
top
100
AcDbLine
 10
1301.151242
 20
7581.51628
 30
7600.0
 11
2172.302483
 21
11901.51628
 31
4220.0
  0
LINE
  5
133
330
118
100
AcDbEntity
  8
top
100
AcDbLine
 10
2172.302483
 20
11901.51628
 30
4220.0
 11
16730.5
 21
11901.51628
 31
4220.0
  0
LINE
  5
134
330
118
100
AcDbEntity
  8
top
100
AcDbLine
 10
16730.5
 20
11901.51628
 30
4220.0
 11
16731.0
 21
7581.51628
 31
7600.0
  0
DIMENSION
  5
135
102
{ACAD_REACTORS
330
137
102
}
102
{ACAD_XDICTIONARY
360
136
102
}
330
118
100
AcDbEntity
  8
DIMENSION
100
AcDbDimension
280
     0
  2
*D70
 10
18890.107114
 20
3262.146972
 30
0.0
 11
18890.107114
 21
7581.831626
 31
0.0
 70
    32
  1
8640
 71
     5
 42
8639.369309
 73
     0
 74
     0
 75
     0
  3
Standard
100
AcDbAlignedDimension
 13
16730.5
 23
11901.51628
 33
4220.0
 14
16730.0
 24
3262.146972
 34
4220.0
 50
90.0
100
AcDbRotatedDimension
1001
ACAD
1000
DSTYLE
1002
{
1070
   147
1040
1.0
1070
    48
1040
0.0
1070
    72
1070
     0
1070
    71
1070
     0
1070
   140
1040
250.0
1070
   340
1005
E
1070
   144
1040
1.0
1070
    40
1040
1.0
1070
   173
1070
     1
1070
   343
1005
0
1070
   342
1005
0
1070
   344
1005
0
1070
   283
1070
     1
1002
}
  0
ENDBLK
  5
11A
330
118
100
AcDbEntity
  8
0
100
AcDbBlockEnd
  0
BLOCK
  5
113
330
112
100
AcDbEntity
  8
0
100
AcDbBlockBegin
  2
*Paper_Space8
 70
     0
 10
0.0
 20
0.0
 30
0.0
  3
*Paper_Space8
  1
*Paper_Space8
  0
VIEWPORT
  5
116
330
112
100
AcDbEntity
  8
0
 48
100.0
100
AcDbViewport
 10
0.0
 20
0.0
 30
0.0
 40
713.046543
 41
340.280126
 68
     1
 69
     1
 12
151.627136
 22
129.479246
 13
0.0
 23
0.0
 14
10.0
 24
10.0
 15
10.0
 25
10.0
 16
0.0
 26
0.0
 36
1.0
 17
0.0
 27
0.0
 37
0.0
 42
50.0
 43
0.0
 44
0.0
 45
340.280126
 50
0.0
 51
0.0
 72
   100
 90
   557168
  1

281
     0
 71
     1
 74
     0
110
0.0
120
0.0
130
0.0
111
1.0
121
0.0
131
0.0
112
0.0
122
1.0
132
0.0
 79
     0
146
0.0
170
     0
 61
     5
348
10A
292
     1
282
     1
141
0.0
142
0.0
 63
   256
361
117
  0
ENDBLK
  5
114
330
112
100
AcDbEntity
  8
0
100
AcDbBlockEnd
  0
BLOCK
  5
72
330
71
100
AcDbEntity
  8
0
100
AcDbBlockBegin
  2
*D66
 70
     1
 10
0.0
 20
0.0
 30
0.0
  3
*D66
  1
*D66
  0
LINE
  5
73
330
71
100
AcDbEntity
  8
DIMENSION
 62
     0
370
    -2
100
AcDbLine
 10
16340.607672
 20
8724.262515
 30
0.0
 11
18499.714786
 21
8724.262515
 31
0.0
  0
LINE
  5
74
330
71
100
AcDbEntity
  8
DIMENSION
 62
     0
370
    -2
100
AcDbLine
 10
16340.107672
 20
84.893206
 30
0.0
 11
18499.714786
 21
84.893206
 31
0.0
  0
LINE
  5
75
330
71
100
AcDbEntity
  8
DIMENSION
 62
     0
370
    -2
100
AcDbLine
 10
18499.714786
 20
8574.262515
 30
0.0
 11
18499.714786
 21
4843.077861
 31
0.0
  0
LINE
  5
76
330
71
100
AcDbEntity
  8
DIMENSION
 62
     0
370
    -2
100
AcDbLine
 10
18499.714786
 20
234.893206
 30
0.0
 11
18499.714786
 21
3966.077861
 31
0.0
  0
SOLID
  5
77
330
71
100
AcDbEntity
  8
DIMENSION
 62
     0
100
AcDbTrace
 10
18524.714786
 20
8574.262515
 30
0.0
 11
18474.714786
 21
8574.262515
 31
0.0
 12
18499.714786
 22
8724.262515
 32
0.0
 13
18499.714786
 23
8724.262515
 33
0.0
  0
SOLID
  5
78
330
71
100
AcDbEntity
  8
DIMENSION
 62
     0
100
AcDbTrace
 10
18474.714786
 20
234.893206
 30
0.0
 11
18524.714786
 21
234.893206
 31
0.0
 12
18499.714786
 22
84.893206
 32
0.0
 13
18499.714786
 23
84.893206
 33
0.0
  0
MTEXT
  5
79
330
71
100
AcDbEntity
  8
DIMENSION
 62
     0
100
AcDbMText
 10
18499.714786
 20
4404.577861
 30
0.0
 40
250.0
 41
0.0
 46
0.0
 71
     5
 72
     1
  1
\A1;8640
 11
0.0
 21
1.0
 31
0.0
 73
     1
 44
1.0
  0
POINT
  5
7A
330
71
100
AcDbEntity
  8
Defpoints
 62
     0
100
AcDbPoint
 10
16340.107672
 20
8724.262515
 30
0.0
  0
POINT
  5
7C
330
71
100
AcDbEntity
  8
Defpoints
 62
     0
100
AcDbPoint
 10
16339.607672
 20
84.893206
 30
0.0
  0
POINT
  5
7D
330
71
100
AcDbEntity
  8
Defpoints
 62
     0
100
AcDbPoint
 10
18499.714786
 20
84.893206
 30
0.0
  0
ENDBLK
  5
7E
330
71
100
AcDbEntity
  8
0
100
AcDbBlockEnd
  0
BLOCK
  5
139
330
138
100
AcDbEntity
  8
0
100
AcDbBlockBegin
  2
*D70
 70
     1
 10
0.0
 20
0.0
 30
0.0
  3
*D70
  1
*D70
  0
LINE
  5
13A
330
138
100
AcDbEntity
  8
DIMENSION
 62
     0
370
    -2
100
AcDbLine
 10
16731.0
 20
11901.51628
 30
0.0
 11
18890.107114
 21
11901.51628
 31
0.0
  0
LINE
  5
13B
330
138
100
AcDbEntity
  8
DIMENSION
 62
     0
370
    -2
100
AcDbLine
 10
16730.5
 20
3262.146972
 30
0.0
 11
18890.107114
 21
3262.146972
 31
0.0
  0
LINE
  5
13C
330
138
100
AcDbEntity
  8
DIMENSION
 62
     0
370
    -2
100
AcDbLine
 10
18890.107114
 20
11899.01628
 30
0.0
 11
18890.107114
 21
8020.331626
 31
0.0
  0
LINE
  5
13D
330
138
100
AcDbEntity
  8
DIMENSION
 62
     0
370
    -2
100
AcDbLine
 10
18890.107114
 20
3264.646972
 30
0.0
 11
18890.107114
 21
7143.331626
 31
0.0
  0
SOLID
  5
13E
330
138
100
AcDbEntity
  8
DIMENSION
 62
     0
100
AcDbTrace
 10
18890.523781
 20
11899.01628
 30
0.0
 11
18889.690448
 21
11899.01628
 31
0.0
 12
18890.107114
 22
11901.51628
 32
0.0
 13
18890.107114
 23
11901.51628
 33
0.0
  0
SOLID
  5
13F
330
138
100
AcDbEntity
  8
DIMENSION
 62
     0
100
AcDbTrace
 10
18889.690448
 20
3264.646972
 30
0.0
 11
18890.523781
 21
3264.646972
 31
0.0
 12
18890.107114
 22
3262.146972
 32
0.0
 13
18890.107114
 23
3262.146972
 33
0.0
  0
MTEXT
  5
140
330
138
100
AcDbEntity
  8
DIMENSION
 62
     0
100
AcDbMText
 10
18890.107114
 20
7581.831626
 30
0.0
 40
250.0
 41
0.0
 46
0.0
 71
     5
 72
     1
  1
\A1;8640
 11
0.0
 21
1.0
 31
0.0
 73
     1
 44
1.0
  0
POINT
  5
141
330
138
100
AcDbEntity
  8
Defpoints
 62
     0
100
AcDbPoint
 10
16730.5
 20
11901.51628
 30
0.0
  0
POINT
  5
142
330
138
100
AcDbEntity
  8
Defpoints
 62
     0
100
AcDbPoint
 10
16730.0
 20
3262.146972
 30
0.0
  0
POINT
  5
143
330
138
100
AcDbEntity
  8
Defpoints
 62
     0
100
AcDbPoint
 10
18890.107114
 20
3262.146972
 30
0.0
  0
ENDBLK
  5
144
330
138
100
AcDbEntity
  8
0
100
AcDbBlockEnd
  0
BLOCK
  5
83
330
82
100
AcDbEntity
  8
0
100
AcDbBlockBegin
  2
*D72
 70
     1
 10
0.0
 20
0.0
 30
0.0
  3
*D72
  1
*D72
  0
LINE
  5
84
330
82
100
AcDbEntity
  8
DIMENSION
 62
     0
370
    -2
100
AcDbLine
 10
16340.107672
 20
13374.262515
 30
0.0
 11
18500.607672
 21
13374.262515
 31
0.0
  0
LINE
  5
85
330
82
100
AcDbEntity
  8
DIMENSION
 62
     0
370
    -2
100
AcDbLine
 10
16341.107672
 20
8724.262515
 30
0.0
 11
18500.607672
 21
8724.262515
 31
0.0
  0
LINE
  5
86
330
82
100
AcDbEntity
  8
DIMENSION
 62
     0
370
    -2
100
AcDbLine
 10
18500.607672
 20
13224.262515
 30
0.0
 11
18500.607672
 21
11487.762515
 31
0.0
  0
LINE
  5
87
330
82
100
AcDbEntity
  8
DIMENSION
 62
     0
370
    -2
100
AcDbLine
 10
18500.607672
 20
8874.262515
 30
0.0
 11
18500.607672
 21
10610.762515
 31
0.0
  0
SOLID
  5
88
330
82
100
AcDbEntity
  8
DIMENSION
 62
     0
100
AcDbTrace
 10
18525.607672
 20
13224.262515
 30
0.0
 11
18475.607672
 21
13224.262515
 31
0.0
 12
18500.607672
 22
13374.262515
 32
0.0
 13
18500.607672
 23
13374.262515
 33
0.0
  0
SOLID
  5
89
330
82
100
AcDbEntity
  8
DIMENSION
 62
     0
100
AcDbTrace
 10
18475.607672
 20
8874.262515
 30
0.0
 11
18525.607672
 21
8874.262515
 31
0.0
 12
18500.607672
 22
8724.262515
 32
0.0
 13
18500.607672
 23
8724.262515
 33
0.0
  0
MTEXT
  5
8A
330
82
100
AcDbEntity
  8
DIMENSION
 62
     0
100
AcDbMText
 10
18500.607672
 20
11049.262515
 30
0.0
 40
250.0
 41
0.0
 46
0.0
 71
     5
 72
     1
  1
\A1;4650
 11
0.0
 21
1.0
 31
0.0
 73
     1
 44
1.0
  0
POINT
  5
8B
330
82
100
AcDbEntity
  8
Defpoints
 62
     0
100
AcDbPoint
 10
16339.607672
 20
13374.262515
 30
0.0
  0
POINT
  5
8C
330
82
100
AcDbEntity
  8
Defpoints
 62
     0
100
AcDbPoint
 10
16340.607672
 20
8724.262515
 30
0.0
  0
POINT
  5
8D
330
82
100
AcDbEntity
  8
Defpoints
 62
     0
100
AcDbPoint
 10
18500.607672
 20
8724.262515
 30
0.0
  0
ENDBLK
  5
8E
330
82
100
AcDbEntity
  8
0
100
AcDbBlockEnd
  0
BLOCK
  5
93
330
92
100
AcDbEntity
  8
0
100
AcDbBlockBegin
  2
*D74
 70
     1
 10
0.0
 20
0.0
 30
0.0
  3
*D74
  1
*D74
  0
LINE
  5
94
330
92
100
AcDbEntity
  8
DIMENSION
 62
     0
370
    -2
100
AcDbLine
 10
2719.607672
 20
13374.762515
 30
0.0
 11
2719.607672
 21
15639.262515
 31
0.0
  0
LINE
  5
95
330
92
100
AcDbEntity
  8
DIMENSION
 62
     0
370
    -2
100
AcDbLine
 10
16339.607672
 20
13374.762515
 30
0.0
 11
16339.607672
 21
15639.262515
 31
0.0
  0
LINE
  5
96
330
92
100
AcDbEntity
  8
DIMENSION
 62
     0
370
    -2
100
AcDbLine
 10
2869.607672
 20
15639.262515
 30
0.0
 11
9007.774339
 21
15639.262515
 31
0.0
  0
LINE
  5
97
330
92
100
AcDbEntity
  8
DIMENSION
 62
     0
370
    -2
100
AcDbLine
 10
16189.607672
 20
15639.262515
 30
0.0
 11
10051.441005
 21
15639.262515
 31
0.0
  0
SOLID
  5
98
330
92
100
AcDbEntity
  8
DIMENSION
 62
     0
100
AcDbTrace
 10
2869.607672
 20
15664.262515
 30
0.0
 11
2869.607672
 21
15614.262515
 31
0.0
 12
2719.607672
 22
15639.262515
 32
0.0
 13
2719.607672
 23
15639.262515
 33
0.0
  0
SOLID
  5
99
330
92
100
AcDbEntity
  8
DIMENSION
 62
     0
100
AcDbTrace
 10
16189.607672
 20
15614.262515
 30
0.0
 11
16189.607672
 21
15664.262515
 31
0.0
 12
16339.607672
 22
15639.262515
 32
0.0
 13
16339.607672
 23
15639.262515
 33
0.0
  0
MTEXT
  5
9A
330
92
100
AcDbEntity
  8
DIMENSION
 62
     0
100
AcDbMText
 10
9529.607672
 20
15639.262515
 30
0.0
 40
250.0
 41
0.0
 46
0.0
 71
     5
 72
     1
  1
\A1;13620
 73
     1
 44
1.0
  0
POINT
  5
9B
330
92
100
AcDbEntity
  8
Defpoints
 62
     0
100
AcDbPoint
 10
2719.607672
 20
13374.262515
 30
0.0
  0
POINT
  5
9C
330
92
100
AcDbEntity
  8
Defpoints
 62
     0
100
AcDbPoint
 10
16339.607672
 20
13374.262515
 30
0.0
  0
POINT
  5
9D
330
92
100
AcDbEntity
  8
Defpoints
 62
     0
100
AcDbPoint
 10
16339.607672
 20
15639.262515
 30
0.0
  0
ENDBLK
  5
9E
330
92
100
AcDbEntity
  8
0
100
AcDbBlockEnd
  0
BLOCK
  5
A3
330
A2
100
AcDbEntity
  8
0
100
AcDbBlockBegin
  2
*D76
 70
     1
 10
0.0
 20
0.0
 30
0.0
  3
*D76
  1
*D76
  0
LINE
  5
A4
330
A2
100
AcDbEntity
  8
DIMENSION
 62
     0
370
    -2
100
AcDbLine
 10
16339.607672
 20
84.393206
 30
0.0
 11
16339.607672
 21
-1700.237485
 31
0.0
  0
LINE
  5
A5
330
A2
100
AcDbEntity
  8
DIMENSION
 62
     0
370
    -2
100
AcDbLine
 10
14129.607672
 20
84.262515
 30
0.0
 11
14129.607672
 21
-1700.237485
 31
0.0
  0
LINE
  5
A6
330
A2
100
AcDbEntity
  8
DIMENSION
 62
     0
370
    -2
100
AcDbLine
 10
16189.607672
 20
-1700.237485
 30
0.0
 11
15631.441005
 21
-1700.237485
 31
0.0
  0
LINE
  5
A7
330
A2
100
AcDbEntity
  8
DIMENSION
 62
     0
370
    -2
100
AcDbLine
 10
14279.607672
 20
-1700.237485
 30
0.0
 11
14837.774339
 21
-1700.237485
 31
0.0
  0
SOLID
  5
A8
330
A2
100
AcDbEntity
  8
DIMENSION
 62
     0
100
AcDbTrace
 10
16189.607672
 20
-1725.237485
 30
0.0
 11
16189.607672
 21
-1675.237485
 31
0.0
 12
16339.607672
 22
-1700.237485
 32
0.0
 13
16339.607672
 23
-1700.237485
 33
0.0
  0
SOLID
  5
A9
330
A2
100
AcDbEntity
  8
DIMENSION
 62
     0
100
AcDbTrace
 10
14279.607672
 20
-1675.237485
 30
0.0
 11
14279.607672
 21
-1725.237485
 31
0.0
 12
14129.607672
 22
-1700.237485
 32
0.0
 13
14129.607672
 23
-1700.237485
 33
0.0
  0
MTEXT
  5
AA
330
A2
100
AcDbEntity
  8
DIMENSION
 62
     0
100
AcDbMText
 10
15234.607672
 20
-1700.237485
 30
0.0
 40
250.0
 41
0.0
 46
0.0
 71
     5
 72
     1
  1
\A1;2210
 73
     1
 44
1.0
  0
POINT
  5
AB
330
A2
100
AcDbEntity
  8
Defpoints
 62
     0
100
AcDbPoint
 10
16339.607672
 20
84.893206
 30
0.0
  0
POINT
  5
AC
330
A2
100
AcDbEntity
  8
Defpoints
 62
     0
100
AcDbPoint
 10
14129.607672
 20
84.762515
 30
0.0
  0
POINT
  5
AD
330
A2
100
AcDbEntity
  8
Defpoints
 62
     0
100
AcDbPoint
 10
14129.607672
 20
-1700.237485
 30
0.0
  0
ENDBLK
  5
AE
330
A2
100
AcDbEntity
  8
0
100
AcDbBlockEnd
  0
BLOCK
  5
B4
330
B3
100
AcDbEntity
  8
0
100
AcDbBlockBegin
  2
*D102
 70
     1
 10
0.0
 20
0.0
 30
0.0
  3
*D102
  1
*D102
  0
LINE
  5
B5
330
B3
100
AcDbEntity
  8
DIMENSION
 62
     0
370
    -2
100
AcDbLine
 10
39.607672
 20
-2150.5
 30
0.0
 11
39.607672
 21
-2240.0
 31
0.0
  0
LINE
  5
B6
330
B3
100
AcDbEntity
  8
DIMENSION
 62
     0
370
    -2
100
AcDbLine
 10
5739.607672
 20
-2150.5
 30
0.0
 11
5739.607672
 21
-2240.0
 31
0.0
  0
LINE
  5
B7
330
B3
100
AcDbEntity
  8
DIMENSION
 62
     0
370
    -2
100
AcDbLine
 10
42.107672
 20
-2240.0
 30
0.0
 11
2471.941005
 21
-2240.0
 31
0.0
  0
LINE
  5
B8
330
B3
100
AcDbEntity
  8
DIMENSION
 62
     0
370
    -2
100
AcDbLine
 10
5737.107672
 20
-2240.0
 30
0.0
 11
3307.274339
 21
-2240.0
 31
0.0
  0
SOLID
  5
B9
330
B3
100
AcDbEntity
  8
DIMENSION
 62
     0
100
AcDbTrace
 10
42.107672
 20
-2239.583333
 30
0.0
 11
42.107672
 21
-2240.416667
 31
0.0
 12
39.607672
 22
-2240.0
 32
0.0
 13
39.607672
 23
-2240.0
 33
0.0
  0
SOLID
  5
BA
330
B3
100
AcDbEntity
  8
DIMENSION
 62
     0
100
AcDbTrace
 10
5737.107672
 20
-2240.416667
 30
0.0
 11
5737.107672
 21
-2239.583333
 31
0.0
 12
5739.607672
 22
-2240.0
 32
0.0
 13
5739.607672
 23
-2240.0
 33
0.0
  0
MTEXT
  5
BB
330
B3
100
AcDbEntity
  8
DIMENSION
 62
     0
100
AcDbMText
 10
2889.607672
 20
-2240.0
 30
0.0
 40
250.0
 41
0.0
 46
0.0
 71
     5
 72
     1
  1
\A1;5700
 73
     1
 44
1.0
  0
POINT
  5
BC
330
B3
100
AcDbEntity
  8
Defpoints
 62
     0
100
AcDbPoint
 10
39.607672
 20
-2150.0
 30
0.0
  0
POINT
  5
BD
330
B3
100
AcDbEntity
  8
Defpoints
 62
     0
100
AcDbPoint
 10
5739.607672
 20
-2150.0
 30
0.0
  0
POINT
  5
BE
330
B3
100
AcDbEntity
  8
Defpoints
 62
     0
100
AcDbPoint
 10
5739.607672
 20
-2240.0
 30
0.0
  0
ENDBLK
  5
BF
330
B3
100
AcDbEntity
  8
0
100
AcDbBlockEnd
  0
BLOCK
  5
CC
330
CB
100
AcDbEntity
  8
0
100
AcDbBlockBegin
  2
*D114
 70
     1
 10
0.0
 20
0.0
 30
0.0
  3
*D114
  1
*D114
  0
LINE
  5
CD
330
CB
100
AcDbEntity
  8
DIMENSION
 62
     0
370
    -2
100
AcDbLine
 10
5737.107672
 20
734.262515
 30
0.0
 11
5737.107672
 21
1189.262515
 31
0.0
  0
LINE
  5
CE
330
CB
100
AcDbEntity
  8
DIMENSION
 62
     0
370
    -2
100
AcDbLine
 10
9497.107672
 20
734.262515
 30
0.0
 11
9497.107672
 21
1189.262515
 31
0.0
  0
LINE
  5
CF
330
CB
100
AcDbEntity
  8
DIMENSION
 62
     0
370
    -2
100
AcDbLine
 10
5987.107672
 20
1189.262515
 30
0.0
 11
7079.607672
 21
1189.262515
 31
0.0
  0
LINE
  5
D0
330
CB
100
AcDbEntity
  8
DIMENSION
 62
     0
370
    -2
100
AcDbLine
 10
9247.107672
 20
1189.262515
 30
0.0
 11
8154.607672
 21
1189.262515
 31
0.0
  0
SOLID
  5
D1
330
CB
100
AcDbEntity
  8
DIMENSION
 62
     0
100
AcDbTrace
 10
5987.107672
 20
1230.929182
 30
0.0
 11
5987.107672
 21
1147.595849
 31
0.0
 12
5737.107672
 22
1189.262515
 32
0.0
 13
5737.107672
 23
1189.262515
 33
0.0
  0
SOLID
  5
D2
330
CB
100
AcDbEntity
  8
DIMENSION
 62
     0
100
AcDbTrace
 10
9247.107672
 20
1147.595849
 30
0.0
 11
9247.107672
 21
1230.929182
 31
0.0
 12
9497.107672
 22
1189.262515
 32
0.0
 13
9497.107672
 23
1189.262515
 33
0.0
  0
MTEXT
  5
D3
330
CB
100
AcDbEntity
  8
DIMENSION
 62
     0
100
AcDbMText
 10
7617.107672
 20
1189.262515
 30
0.0
 40
250.0
 41
0.0
 46
0.0
 71
     5
 72
     1
  1
\A1;3760
 73
     1
 44
1.0
  0
POINT
  5
D4
330
CB
100
AcDbEntity
  8
Defpoints
 62
     0
100
AcDbPoint
 10
5737.107672
 20
684.262515
 30
0.0
  0
POINT
  5
D5
330
CB
100
AcDbEntity
  8
Defpoints
 62
     0
100
AcDbPoint
 10
9497.107672
 20
684.262515
 30
0.0
  0
POINT
  5
D6
330
CB
100
AcDbEntity
  8
Defpoints
 62
     0
100
AcDbPoint
 10
9497.107672
 20
1189.262515
 30
0.0
  0
ENDBLK
  5
D7
330
CB
100
AcDbEntity
  8
0
100
AcDbBlockEnd
  0
BLOCK
  5
E3
330
E2
100
AcDbEntity
  8
0
100
AcDbBlockBegin
  2
*D130
 70
     1
 10
0.0
 20
0.0
 30
0.0
  3
*D130
  1
*D130
  0
LINE
  5
E4
330
E2
100
AcDbEntity
  8
DIMENSION
 62
     0
370
    -2
100
AcDbLine
 10
9799.607672
 20
484.488566
 30
0.0
 11
9799.607672
 21
-1700.511434
 31
0.0
  0
LINE
  5
E5
330
E2
100
AcDbEntity
  8
DIMENSION
 62
     0
370
    -2
100
AcDbLine
 10
14129.607672
 20
484.488566
 30
0.0
 11
14129.607672
 21
-1700.511434
 31
0.0
  0
LINE
  5
E6
330
E2
100
AcDbEntity
  8
DIMENSION
 62
     0
370
    -2
100
AcDbLine
 10
10049.607672
 20
-1700.511434
 30
0.0
 11
11427.107672
 21
-1700.511434
 31
0.0
  0
LINE
  5
E7
330
E2
100
AcDbEntity
  8
DIMENSION
 62
     0
370
    -2
100
AcDbLine
 10
13879.607672
 20
-1700.511434
 30
0.0
 11
12502.107672
 21
-1700.511434
 31
0.0
  0
SOLID
  5
E8
330
E2
100
AcDbEntity
  8
DIMENSION
 62
     0
100
AcDbTrace
 10
10049.607672
 20
-1658.844767
 30
0.0
 11
10049.607672
 21
-1742.1781
 31
0.0
 12
9799.607672
 22
-1700.511434
 32
0.0
 13
9799.607672
 23
-1700.511434
 33
0.0
  0
SOLID
  5
E9
330
E2
100
AcDbEntity
  8
DIMENSION
 62
     0
100
AcDbTrace
 10
13879.607672
 20
-1742.1781
 30
0.0
 11
13879.607672
 21
-1658.844767
 31
0.0
 12
14129.607672
 22
-1700.511434
 32
0.0
 13
14129.607672
 23
-1700.511434
 33
0.0
  0
MTEXT
  5
EA
330
E2
100
AcDbEntity
  8
DIMENSION
 62
     0
100
AcDbMText
 10
11964.607672
 20
-1700.511434
 30
0.0
 40
250.0
 41
0.0
 46
0.0
 71
     5
 72
     1
  1
\A1;4330
 73
     1
 44
1.0
  0
POINT
  5
EB
330
E2
100
AcDbEntity
  8
Defpoints
 62
     0
100
AcDbPoint
 10
9799.607672
 20
534.488566
 30
0.0
  0
POINT
  5
EC
330
E2
100
AcDbEntity
  8
Defpoints
 62
     0
100
AcDbPoint
 10
14129.607672
 20
534.488566
 30
0.0
  0
POINT
  5
ED
330
E2
100
AcDbEntity
  8
Defpoints
 62
     0
100
AcDbPoint
 10
14129.607672
 20
-1700.511434
 30
0.0
  0
ENDBLK
  5
EE
330
E2
100
AcDbEntity
  8
0
100
AcDbBlockEnd
  0
BLOCK
  5
FB
330
FA
100
AcDbEntity
  8
0
100
AcDbBlockBegin
  2
*D136
 70
     1
 10
0.0
 20
0.0
 30
0.0
  3
*D136
  1
*D136
  0
LINE
  5
FC
330
FA
100
AcDbEntity
  8
DIMENSION
 62
     0
370
    -2
100
AcDbLine
 10
16341.607672
 20
0.0
 30
0.0
 11
17469.562037
 21
0.0
 31
0.0
  0
LINE
  5
FD
330
FA
100
AcDbEntity
  8
DIMENSION
 62
     0
370
    -2
100
AcDbLine
 10
16341.107672
 20
7600.0
 30
0.0
 11
17469.562037
 21
7600.0
 31
0.0
  0
LINE
  5
FE
330
FA
100
AcDbEntity
  8
DIMENSION
 62
     0
370
    -2
100
AcDbLine
 10
17469.562037
 20
2.5
 30
0.0
 11
17469.562037
 21
3790.25
 31
0.0
  0
LINE
  5
FF
330
FA
100
AcDbEntity
  8
DIMENSION
 62
     0
370
    -2
100
AcDbLine
 10
17469.562037
 20
7597.5
 30
0.0
 11
17469.562037
 21
3809.75
 31
0.0
  0
SOLID
  5
100
330
FA
100
AcDbEntity
  8
DIMENSION
 62
     0
100
AcDbTrace
 10
17469.145371
 20
2.5
 30
0.0
 11
17469.978704
 21
2.5
 31
0.0
 12
17469.562037
 22
0.0
 32
0.0
 13
17469.562037
 23
0.0
 33
0.0
  0
SOLID
  5
101
330
FA
100
AcDbEntity
  8
DIMENSION
 62
     0
100
AcDbTrace
 10
17469.978704
 20
7597.5
 30
0.0
 11
17469.145371
 21
7597.5
 31
0.0
 12
17469.562037
 22
7600.0
 32
0.0
 13
17469.562037
 23
7600.0
 33
0.0
  0
MTEXT
  5
102
330
FA
100
AcDbEntity
  8
DIMENSION
 62
     0
100
AcDbMText
 10
17469.562037
 20
3800.0
 30
0.0
 40
2.5
 41
0.0
 46
0.0
 71
     5
 72
     1
  1
\A1;7600.0000
 11
0.0
 21
1.0
 31
0.0
 73
     1
 44
1.0
  0
POINT
  5
103
330
FA
100
AcDbEntity
  8
Defpoints
 62
     0
100
AcDbPoint
 10
16341.107672
 20
0.0
 30
0.0
  0
POINT
  5
104
330
FA
100
AcDbEntity
  8
Defpoints
 62
     0
100
AcDbPoint
 10
16340.607672
 20
7600.0
 30
0.0
  0
POINT
  5
105
330
FA
100
AcDbEntity
  8
Defpoints
 62
     0
100
AcDbPoint
 10
17469.562037
 20
7600.0
 30
0.0
  0
ENDBLK
  5
106
330
FA
100
AcDbEntity
  8
0
100
AcDbBlockEnd
  0
ENDSEC
  0
SECTION
  2
ENTITIES
  0
LINE
  5
5B
330
16
100
AcDbEntity
  8
floor
100
AcDbLine
 10
16339.607672
 20
13374.262515
 30
0.0
 11
2719.607672
 21
13374.262515
 31
0.0
  0
LINE
  5
5C
330
16
100
AcDbEntity
  8
floor
100
AcDbLine
 10
16340.107672
 20
8724.262515
 30
0.0
 11
1781.910155
 21
8724.262515
 31
0.0
  0
LWPOLYLINE
  5
5D
102
{ACAD_REACTORS
330
A1
102
}
330
16
100
AcDbEntity
  8
floor
100
AcDbPolyline
 90
        4
 70
     0
 43
0.0
 10
39.607672
 20
84.762515
 10
5674.5675
 20
84.262515
 10
16339.607672
 20
84.893206
 10
16340.107672
 20
8724.262515
  0
LINE
  5
5E
330
16
100
AcDbEntity
  8
floor
100
AcDbLine
 10
39.607672
 20
84.262515
 30
0.0
 11
1781.910155
 21
8724.262515
 31
0.0
  0
LWPOLYLINE
  5
5F
102
{ACAD_REACTORS
330
81
330
91
102
}
330
16
100
AcDbEntity
  8
floor
100
AcDbPolyline
 90
        4
 70
     0
 43
0.0
 10
1781.910155
 20
8724.262515
 10
2719.607672
 20
13374.262515
 10
16339.607672
 20
13374.262515
 10
16340.107672
 20
8724.262515
  0
LINE
  5
60
330
16
100
AcDbEntity
  8
top
100
AcDbLine
 10
16339.607672
 20
84.893206
 30
0.0
 11
16339.607672
 21
84.893206
 31
4220.0
  0
LINE
  5
62
330
16
100
AcDbEntity
  8
top
100
AcDbLine
 10
16340.107672
 20
8724.262515
 30
0.0
 11
16340.107672
 21
8724.262515
 31
4220.0
  0
LINE
  5
63
330
16
100
AcDbEntity
  8
top
100
AcDbLine
 10
39.607672
 20
84.762515
 30
0.0
 11
39.607672
 21
84.762515
 31
4220.0
  0
LINE
  5
64
330
16
100
AcDbEntity
  8
top
100
AcDbLine
 10
1781.910155
 20
8724.262515
 30
0.0
 11
1781.910155
 21
8724.262515
 31
4220.0
  0
LINE
  5
65
330
16
100
AcDbEntity
  8
top
100
AcDbLine
 10
910.758914
 20
4404.262515
 30
7600.0
 11
16340.607672
 21
4404.262515
 31
7600.0
  0
LWPOLYLINE
  5
66
330
16
100
AcDbEntity
  8
floor
100
AcDbPolyline
 90
        2
 70
     0
 43
0.0
 10
16340.607672
 20
4404.262515
 10
16340.607672
 20
4404.262515
  0
LINE
  5
67
330
16
100
AcDbEntity
  8
top
100
AcDbLine
 10
16340.607672
 20
4404.262515
 30
7600.0
 11
16339.607672
 21
84.893206
 31
4220.0
  0
LINE
  5
68
102
{ACAD_REACTORS
330
6F
102
}
330
16
100
AcDbEntity
  8
top
100
AcDbLine
 10
16339.607672
 20
84.893206
 30
4220.0
 11
39.607672
 21
84.762515
 31
4220.0
  0
LINE
  5
69
330
16
100
AcDbEntity
  8
top
100
AcDbLine
 10
39.607672
 20
84.762515
 30
4220.0
 11
910.758914
 21
4404.262515
 31
7600.0
  0
LINE
  5
6A
330
16
100
AcDbEntity
  8
top
100
AcDbLine
 10
910.758914
 20
4404.262515
 30
7600.0
 11
1781.910155
 21
8724.262515
 31
4220.0
  0
LINE
  5
6B
330
16
100
AcDbEntity
  8
top
100
AcDbLine
 10
1781.910155
 20
8724.262515
 30
4220.0
 11
16340.107672
 21
8724.262515
 31
4220.0
  0
LINE
  5
6C
102
{ACAD_REACTORS
330
F9
102
}
330
16
100
AcDbEntity
  8
top
100
AcDbLine
 10
16340.107672
 20
8724.262515
 30
4220.0
 11
16340.607672
 21
4404.262515
 31
7600.0
  0
DIMENSION
  5
6D
102
{ACAD_REACTORS
330
6F
102
}
102
{ACAD_XDICTIONARY
360
6E
102
}
330
16
100
AcDbEntity
  8
DIMENSION
100
AcDbDimension
280
     0
  2
*D66
 10
18499.714786
 20
84.893206
 30
0.0
 11
18499.714786
 21
4404.577861
 31
0.0
 70
    32
  1
8640
 71
     5
 42
8639.369309
 73
     0
 74
     0
 75
     0
  3
Standard
100
AcDbAlignedDimension
 13
16340.107672
 23
8724.262515
 33
4220.0
 14
16339.607672
 24
84.893206
 34
4220.0
 50
90.0
100
AcDbRotatedDimension
1001
ACAD
1000
DSTYLE
1002
{
1070
    41
1040
150.0
1070
   147
1040
1.0
1070
    48
1040
0.0
1070
    72
1070
     0
1070
    71
1070
     0
1070
   140
1040
250.0
1070
   340
1005
E
1070
   144
1040
1.0
1070
    40
1040
1.0
1070
   173
1070
     1
1070
   343
1005
0
1070
   342
1005
0
1070
   344
1005
0
1070
   283
1070
     1
1002
}
  0
DIMENSION
  5
7F
102
{ACAD_REACTORS
330
81
330
F9
102
}
102
{ACAD_XDICTIONARY
360
80
102
}
330
16
100
AcDbEntity
  8
DIMENSION
100
AcDbDimension
280
     0
  2
*D72
 10
18500.607672
 20
8724.262515
 30
0.0
 11
18500.607672
 21
11049.262515
 31
0.0
 70
    32
 71
     5
 42
4650.0
 73
     0
 74
     0
 75
     0
  3
Standard
100
AcDbAlignedDimension
 13
16339.607672
 23
13374.262515
 33
0.0
 14
16340.607672
 24
8724.262515
 34
0.0
 50
90.0
100
AcDbRotatedDimension
1001
ACAD
1000
DSTYLE
1002
{
1070
    41
1040
150.0
1070
   271
1070
     0
1070
   140
1040
250.0
1070
   340
1005
E
1070
   144
1040
1.0
1070
    40
1040
1.0
1070
   173
1070
     1
1070
   343
1005
0
1070
   342
1005
0
1070
   344
1005
0
1070
   283
1070
     1
1002
}
  0
DIMENSION
  5
8F
102
{ACAD_REACTORS
330
91
102
}
102
{ACAD_XDICTIONARY
360
90
102
}
330
16
100
AcDbEntity
  8
DIMENSION
100
AcDbDimension
280
     0
  2
*D74
 10
16339.607672
 20
15639.262515
 30
0.0
 11
9529.607672
 21
15639.262515
 31
0.0
 70
    32
 71
     5
 42
13620.0
 73
     0
 74
     0
 75
     0
  3
Standard
100
AcDbAlignedDimension
 13
2719.607672
 23
13374.262515
 33
0.0
 14
16339.607672
 24
13374.262515
 34
0.0
100
AcDbRotatedDimension
1001
ACAD
1000
DSTYLE
1002
{
1070
    41
1040
150.0
1070
   271
1070
     0
1070
   140
1040
250.0
1070
   340
1005
E
1070
   144
1040
1.0
1070
    40
1040
1.0
1070
   173
1070
     1
1070
   343
1005
0
1070
   342
1005
0
1070
   344
1005
0
1070
   283
1070
     1
1002
}
  0
DIMENSION
  5
9F
102
{ACAD_REACTORS
330
A1
102
}
102
{ACAD_XDICTIONARY
360
A0
102
}
330
16
100
AcDbEntity
  8
DIMENSION
100
AcDbDimension
280
     0
  2
*D76
 10
14129.607672
 20
-1700.237485
 30
0.0
 11
15234.607672
 21
-1700.237485
 31
0.0
 70
    32
 71
     5
 42
2210.0
 73
     0
 74
     0
 75
     0
  3
Standard
100
AcDbAlignedDimension
 13
16339.607672
 23
84.893206
 33
0.0
 14
14129.607672
 24
84.762515
 34
0.0
100
AcDbRotatedDimension
1001
ACAD
1000
DSTYLE
1002
{
1070
    41
1040
150.0
1070
   271
1070
     0
1070
   140
1040
250.0
1070
   340
1005
E
1070
   144
1040
1.0
1070
    40
1040
1.0
1070
   173
1070
     1
1070
   343
1005
0
1070
   342
1005
0
1070
   344
1005
0
1070
   283
1070
     1
1002
}
  0
LINE
  5
AF
102
{ACAD_REACTORS
330
B2
102
}
330
16
100
AcDbEntity
  8
floor
100
AcDbLine
 10
39.607672
 20
84.262515
 30
0.0
 11
39.607672
 21
-4950.0
 31
0.0
  0
DIMENSION
  5
B0
102
{ACAD_REACTORS
330
B2
102
}
102
{ACAD_XDICTIONARY
360
B1
102
}
330
16
100
AcDbEntity
  8
DIMENSION
100
AcDbDimension
280
     0
  2
*D102
 10
5739.607672
 20
-2240.0
 30
0.0
 11
2889.607672
 21
-2240.0
 31
0.0
 70
    32
 71
     5
 42
5700.0
 73
     0
 74
     0
 75
     0
  3
Standard
100
AcDbAlignedDimension
 13
39.607672
 23
-2150.0
 33
0.0
 14
5739.607672
 24
-2150.0
 34
0.0
100
AcDbRotatedDimension
1001
ACAD
1000
DSTYLE
1002
{
1070
   271
1070
     0
1070
   140
1040
250.0
1070
   340
1005
E
1070
   144
1040
1.0
1070
    40
1040
1.0
1070
   173
1070
     1
1070
   343
1005
0
1070
   342
1005
0
1070
   344
1005
0
1070
   283
1070
     1
1002
}
  0
LWPOLYLINE
  5
C0
102
{ACAD_REACTORS
330
CA
102
}
330
16
100
AcDbEntity
  8
floor
100
AcDbPolyline
 90
        4
 70
     0
 43
0.0
 10
5137.107672
 20
384.262515
 10
5137.107672
 20
684.262515
 10
5737.107672
 20
684.262515
 10
5737.107672
 20
384.262515
  0
LWPOLYLINE
  5
C1
330
16
100
AcDbEntity
  8
floor
100
AcDbPolyline
 90
        3
 70
     0
 43
0.0
 10
461.518144
 20
684.262515
 10
639.607672
 20
684.262515
 10
639.607672
 20
384.262515
  0
LINE
  5
C2
330
16
100
AcDbEntity
  8
floor
100
AcDbLine
 10
639.607672
 20
384.262515
 30
0.0
 11
5137.107672
 21
384.262515
 31
0.0
  0
LWPOLYLINE
  5
C3
102
{ACAD_REACTORS
102
}
330
16
100
AcDbEntity
  8
floor
100
AcDbPolyline
 90
        4
 70
     0
 43
0.0
 10
2381.910155
 20
8424.262515
 10
2381.910155
 20
8124.262515
 10
1961.596176
 20
8124.262515
 10
461.518144
 20
684.262515
  0
LINE
  5
C4
330
16
100
AcDbEntity
  8
floor
100
AcDbLine
 10
2381.910155
 20
8424.262515
 30
0.0
 11
5137.107672
 21
8424.262515
 31
0.0
  0
LINE
  5
C5
330
16
100
AcDbEntity
  8
floor
100
AcDbLine
 10
5137.107672
 20
8424.262515
 30
0.0
 11
5137.107672
 21
8124.262515
 31
0.0
  0
LINE
  5
C6
330
16
100
AcDbEntity
  8
floor
100
AcDbLine
 10
5137.107672
 20
8124.262515
 30
0.0
 11
5737.107672
 21
8124.262515
 31
0.0
  0
LINE
  5
C7
330
16
100
AcDbEntity
  8
floor
100
AcDbLine
 10
5737.107672
 20
8124.262515
 30
0.0
 11
5737.107672
 21
8424.262515
 31
0.0
  0
DIMENSION
  5
C8
102
{ACAD_REACTORS
330
CA
102
}
102
{ACAD_XDICTIONARY
360
C9
102
}
330
16
100
AcDbEntity
  8
DIMENSION
100
AcDbDimension
280
     0
  2
*D114
 10
9497.107672
 20
1189.262515
 30
0.0
 11
7617.107672
 21
1189.262515
 31
0.0
 70
    32
 71
     5
 42
3760.0
 73
     0
 74
     0
 75
     0
  3
Standard
100
AcDbAlignedDimension
 13
5737.107672
 23
684.262515
 33
0.0
 14
9497.107672
 24
684.262515
 34
0.0
100
AcDbRotatedDimension
1001
ACAD
1000
DSTYLE
1002
{
1070
   271
1070
     0
1070
   340
1005
E
1070
   144
1040
1.0
1070
    40
1040
100.0
1070
   173
1070
     1
1070
   343
1005
0
1070
   342
1005
0
1070
   344
1005
0
1070
   283
1070
     1
1002
}
  0
LWPOLYLINE
  5
D8
330
16
100
AcDbEntity
  8
floor
100
AcDbPolyline
 90
        2
 70
     0
 43
0.0
 10
5737.107672
 20
384.262515
 10
9497.107672
 20
384.262515
  0
LINE
  5
D9
330
16
100
AcDbEntity
  8
floor
100
AcDbLine
 10
5737.107672
 20
8424.262515
 30
0.0
 11
9497.107672
 21
8424.262515
 31
0.0
  0
LINE
  5
DA
102
{ACAD_REACTORS
102
}
330
16
100
AcDbEntity
  8
floor
100
AcDbLine
 10
9497.107672
 20
8424.262515
 30
0.0
 11
9497.107672
 21
384.262515
 31
0.0
  0
LINE
  5
DB
330
16
100
AcDbEntity
  8
floor
100
AcDbLine
 10
9799.607672
 20
8226.762515
 30
0.0
 11
13794.607672
 21
8226.762515
 31
0.0
  0
LINE
  5
DC
102
{ACAD_REACTORS
102
}
330
16
100
AcDbEntity
  8
floor
100
AcDbLine
 10
13794.607672
 20
8226.762515
 30
0.0
 11
13794.607672
 21
534.488566
 31
0.0
  0
LINE
  5
DD
330
16
100
AcDbEntity
  8
floor
100
AcDbLine
 10
13794.607672
 20
534.488566
 30
0.0
 11
9799.607672
 21
534.488566
 31
0.0
  0
LINE
  5
DE
102
{ACAD_REACTORS
330
E1
102
}
330
16
100
AcDbEntity
  8
floor
100
AcDbLine
 10
9799.607672
 20
534.488566
 30
0.0
 11
9799.607672
 21
8226.762515
 31
0.0
  0
DIMENSION
  5
DF
102
{ACAD_REACTORS
330
E1
102
}
102
{ACAD_XDICTIONARY
360
E0
102
}
330
16
100
AcDbEntity
  8
DIMENSION
100
AcDbDimension
280
     0
  2
*D130
 10
14129.607672
 20
-1700.511434
 30
0.0
 11
11964.607672
 21
-1700.511434
 31
0.0
 70
    32
 71
     5
 42
4330.0
 73
     0
 74
     0
 75
     0
  3
Standard
100
AcDbAlignedDimension
 13
9799.607672
 23
534.488566
 33
0.0
 14
14129.607672
 24
534.488566
 34
0.0
100
AcDbRotatedDimension
1001
ACAD
1000
DSTYLE
1002
{
1070
   271
1070
     0
1070
   340
1005
E
1070
   144
1040
1.0
1070
    40
1040
100.0
1070
   173
1070
     1
1070
   343
1005
0
1070
   342
1005
0
1070
   344
1005
0
1070
   283
1070
     1
1002
}
  0
LWPOLYLINE
  5
EF
330
16
100
AcDbEntity
  8
floor
100
AcDbPolyline
 90
        2
 70
     0
 43
0.0
 10
16039.607672
 20
8424.262515
 10
14129.607672
 20
8424.262515
  0
LWPOLYLINE
  5
F0
330
16
100
AcDbEntity
  8
floor
100
AcDbPolyline
 90
        2
 70
     0
 43
0.0
 10
14129.607672
 20
384.262515
 10
16039.607672
 20
384.262515
  0
LINE
  5
F1
330
16
100
AcDbEntity
  8
floor
100
AcDbLine
 10
14129.607672
 20
384.262515
 30
0.0
 11
14129.607672
 21
3914.262515
 31
0.0
  0
LINE
  5
F2
330
16
100
AcDbEntity
  8
floor
100
AcDbLine
 10
16039.607672
 20
384.262515
 30
0.0
 11
16039.607672
 21
3914.262515
 31
0.0
  0
LINE
  5
F3
102
{ACAD_REACTORS
102
}
330
16
100
AcDbEntity
  8
floor
100
AcDbLine
 10
16039.607672
 20
3914.262515
 30
0.0
 11
14129.607672
 21
3914.262515
 31
0.0
  0
LINE
  5
F4
330
16
100
AcDbEntity
  8
floor
100
AcDbLine
 10
14129.607672
 20
8424.262515
 30
0.0
 11
14129.607672
 21
4214.262515
 31
0.0
  0
LINE
  5
F5
330
16
100
AcDbEntity
  8
floor
100
AcDbLine
 10
14129.607672
 20
4214.262515
 30
0.0
 11
16039.607672
 21
4214.262515
 31
0.0
  0
LINE
  5
F6
330
16
100
AcDbEntity
  8
floor
100
AcDbLine
 10
16039.607672
 20
4214.262515
 30
0.0
 11
16039.607672
 21
8424.262515
 31
0.0
  0
DIMENSION
  5
F7
102
{ACAD_REACTORS
330
F9
102
}
102
{ACAD_XDICTIONARY
360
F8
102
}
330
16
100
AcDbEntity
  8
DIMENSION
100
AcDbDimension
280
     0
  2
*D136
 10
17469.562037
 20
0.0
 30
7600.0
 11
17469.562037
 21
3800.0
 31
0.0
 70
    32
 71
     5
 42
7600.0
 73
     0
 74
     0
 75
     0
210
0.0
220
-1.0
230
0.0
  3
Standard
100
AcDbAlignedDimension
 13
16341.107672
 23
8724.262515
 33
0.0
 14
16340.607672
 24
4404.262515
 34
7600.0
 50
90.0
100
AcDbRotatedDimension
1001
ACAD
1000
DSTYLE
1002
{
1070
   340
1005
E
1070
   144
1040
1.0
1070
    40
1040
1.0
1070
   173
1070
     1
1070
   343
1005
0
1070
   342
1005
0
1070
   344
1005
0
1070
   283
1070
     1
1002
}
  0
VIEWPORT
  5
107
330
21
100
AcDbEntity
 67
     1
  8
0
 48
100.0
100
AcDbViewport
 10
0.0
 20
0.0
 30
0.0
 40
499.13258
 41
241.364581
 68
     1
 69
     1
 12
183.52865
 22
103.434917
 13
0.0
 23
0.0
 14
10.0
 24
10.0
 15
10.0
 25
10.0
 16
0.0
 26
0.0
 36
1.0
 17
0.0
 27
0.0
 37
0.0
 42
50.0
 43
0.0
 44
0.0
 45
241.364581
 50
0.0
 51
0.0
 72
   100
 90
   557072
  1

281
     0
 71
     0
 74
     0
110
0.0
120
0.0
130
0.0
111
1.0
121
0.0
131
0.0
112
0.0
122
1.0
132
0.0
 79
     0
146
0.0
170
     0
 61
     5
292
     1
282
     1
141
0.0
142
0.0
 63
   256
361
108
  0
VIEWPORT
  5
109
330
21
100
AcDbEntity
 67
     1
  8
DIMENSION
 62
     2
100
AcDbViewport
 10
144.4995
 20
101.613333
 30
0.0
 40
288.999
 41
203.226667
 68
     2
 69
     2
 12
9332.607672
 22
5188.504375
 13
0.0
 23
0.0
 14
10.0
 24
10.0
 15
10.0
 25
10.0
 16
0.0
 26
0.0
 36
1.0
 17
0.0
 27
0.0
 37
0.0
 42
50.0
 43
0.0
 44
0.0
 45
16698.946606
 50
0.0
 51
0.0
 72
   100
 90
   557088
  1

281
     0
 71
     1
 74
     0
110
0.0
120
0.0
130
0.0
111
1.0
121
0.0
131
0.0
112
0.0
122
1.0
132
0.0
 79
     0
146
0.0
170
     0
 61
     5
348
10A
292
     1
282
     1
141
0.0
142
0.0
 63
   256
361
10B
  0
ENDSEC
  0
SECTION
  2
OBJECTS
  0
DICTIONARY
  5
5
330
0
100
AcDbDictionary
281
     1
  3
ACAD_COLOR
350
2E
  3
ACAD_DETAILVIEWSTYLE
350
15F
  3
ACAD_GROUP
350
2C
  3
ACAD_IMAGE_DICT
350
157
  3
ACAD_LAYOUT
350
1D
  3
ACAD_MATERIAL
350
7
  3
ACAD_MLEADERSTYLE
350
15D
  3
ACAD_MLINESTYLE
350
14
  3
ACAD_PLOTSETTINGS
350
2D
  3
ACAD_PLOTSTYLENAME
350
4
  3
ACAD_SCALELIST
350
37
  3
ACAD_SECTIONVIEWSTYLE
350
160
  3
ACAD_TABLESTYLE
350
15C
  3
ACAD_VISUALSTYLE
350
2F
  3
AcDbVariableDictionary
350
15A
  3
MCS_STREAM_DICT
350
155
  0
SUN
  5
31
330
30
100
AcDbSun
 90
        1
290
     0
 63
     7
421
 16777215
 40
1.0
291
     1
 91
  2455826
 92
 54000000
292
     0
 70
     2
 71
   256
280
     1
  0
SUN
  5
33
330
32
100
AcDbSun
 90
        1
290
     0
 63
     7
421
 16777215
 40
1.0
291
     1
 91
  2455826
 92
 54000000
292
     0
 70
     2
 71
   256
280
     1
  0
DICTIONARY
  5
17
330
16
100
AcDbDictionary
280
     1
281
     1
  3
ACAD_SORTENTS
360
18
  0
DICTIONARY
  5
22
330
21
100
AcDbDictionary
280
     1
281
     1
  3
ACAD_SORTENTS
360
23
  0
SUN
  5
14A
330
149
100
AcDbSun
 90
        1
290
     0
 63
     7
421
 16777215
 40
1.0
291
     1
 91
  2455826
 92
 54000000
292
     0
 70
     2
 71
   256
280
     1
  0
SUN
  5
111
330
110
100
AcDbSun
 90
        1
290
     0
 63
     7
421
 16777215
 40
1.0
291
     1
 91
  2455826
 92
 54000000
292
     0
 70
     2
 71
   256
280
     1
  0
SUN
  5
11D
330
11C
100
AcDbSun
 90
        1
290
     0
 63
     7
421
 16777215
 40
1.0
291
     1
 91
  2455826
 92
 54000000
292
     0
 70
     2
 71
   256
280
     1
  0
DICTIONARY
  5
136
330
135
100
AcDbDictionary
280
     1
281
     1
  3
MC_XOBJECT1
360
137
  0
SUN
  5
117
330
116
100
AcDbSun
 90
        1
290
     0
 63
     7
421
 16777215
 40
1.0
291
     1
 91
  2455826
 92
 54000000
292
     0
 70
     2
 71
   256
280
     1
  0
DICTIONARY
  5
6E
330
6D
100
AcDbDictionary
280
     1
281
     1
  3
MC_XOBJECT1
360
6F
  0
DICTIONARY
  5
80
330
7F
100
AcDbDictionary
280
     1
281
     1
  3
MC_XOBJECT1
360
81
  0
DICTIONARY
  5
90
330
8F
100
AcDbDictionary
280
     1
281
     1
  3
MC_XOBJECT1
360
91
  0
DICTIONARY
  5
A0
330
9F
100
AcDbDictionary
280
     1
281
     1
  3
MC_XOBJECT1
360
A1
  0
DICTIONARY
  5
B1
330
B0
100
AcDbDictionary
280
     1
281
     1
  3
MC_XOBJECT1
360
B2
  0
DICTIONARY
  5
C9
330
C8
100
AcDbDictionary
280
     1
281
     1
  3
MC_XOBJECT1
360
CA
  0
DICTIONARY
  5
E0
330
DF
100
AcDbDictionary
280
     1
281
     1
  3
MC_XOBJECT1
360
E1
  0
DICTIONARY
  5
F8
330
F7
100
AcDbDictionary
280
     1
281
     1
  3
MC_XOBJECT1
360
F9
  0
SUN
  5
108
330
107
100
AcDbSun
 90
        1
290
     0
 63
     7
421
 16777215
 40
1.0
291
     1
 91
  2455826
 92
 54000000
292
     0
 70
     2
 71
   256
280
     1
  0
SUN
  5
10B
330
109
100
AcDbSun
 90
        1
290
     0
 63
     7
421
 16777215
 40
1.0
291
     1
 91
  2455826
 92
 54000000
292
     0
 70
     2
 71
   256
280
     1
  0
DICTIONARY
  5
2E
102
{ACAD_REACTORS
330
5
102
}
330
5
100
AcDbDictionary
281
     1
  0
DICTIONARY
  5
15F
102
{ACAD_REACTORS
330
5
102
}
330
5
100
AcDbDictionary
281
     1
  0
DICTIONARY
  5
2C
102
{ACAD_REACTORS
330
5
102
}
330
5
100
AcDbDictionary
281
     1
  0
DICTIONARY
  5
157
102
{ACAD_REACTORS
330
5
102
}
330
5
100
AcDbDictionary
281
     1
  0
DICTIONARY
  5
1D
102
{ACAD_REACTORS
330
5
102
}
330
5
100
AcDbDictionary
281
     1
  3
A0
350
153
  3
A1
350
14E
  3
A2
350
148
  3
A3
350
11B
  3
A4
350
115
  3
Layout1
350
26
  3
Layout2
350
10F
  3
Model
350
1C
  0
DICTIONARY
  5
7
102
{ACAD_REACTORS
330
5
102
}
330
5
100
AcDbDictionary
281
     1
  3
ByBlock
350
5A
  3
ByLayer
350
10
  3
Global
350
6
  0
DICTIONARY
  5
15D
102
{ACAD_REACTORS
330
5
102
}
330
5
100
AcDbDictionary
281
     1
  0
DICTIONARY
  5
14
102
{ACAD_REACTORS
330
5
102
}
330
5
100
AcDbDictionary
281
     1
  3
Standard
350
13
  0
DICTIONARY
  5
2D
102
{ACAD_REACTORS
330
5
102
}
330
5
100
AcDbDictionary
281
     1
  0
ACDBDICTIONARYWDFLT
  5
4
102
{ACAD_REACTORS
330
5
102
}
330
5
100
AcDbDictionary
281
     1
  3
Normal
350
3
100
AcDbDictionaryWithDefault
340
3
  0
DICTIONARY
  5
37
102
{ACAD_REACTORS
330
5
102
}
330
5
100
AcDbDictionary
281
     1
  3
*A1
350
59
  0
DICTIONARY
  5
160
102
{ACAD_REACTORS
330
5
102
}
330
5
100
AcDbDictionary
281
     1
  0
DICTIONARY
  5
15C
102
{ACAD_REACTORS
330
5
102
}
330
5
100
AcDbDictionary
281
     1
  0
DICTIONARY
  5
2F
102
{ACAD_REACTORS
330
5
102
}
330
5
100
AcDbDictionary
281
     1
  3
2dWireframe
350
10A
  0
DICTIONARY
  5
15A
102
{ACAD_REACTORS
330
5
102
}
330
5
100
AcDbDictionary
281
     1
  3
CANNOSCALE
350
15B
  3
XCLIPFRAME
350
15E
  0
DICTIONARY
  5
155
102
{ACAD_REACTORS
330
5
102
}
330
5
100
AcDbDictionary
281
     1
  3
MC_VERSION_DATA
350
158
  3
MCS_DOCUMENT_ID
350
156
  0
SORTENTSTABLE
  5
18
102
{ACAD_REACTORS
330
17
102
}
330
17
100
AcDbSortentsTable
330
16
  0
SORTENTSTABLE
  5
23
102
{ACAD_REACTORS
330
22
102
}
330
22
100
AcDbSortentsTable
330
21
  0
McDbContainer2
  5
137
102
{ACAD_REACTORS
330
136
102
}
330
136
100
McDbContainer2
  0
McDbContainer2
  5
6F
102
{ACAD_REACTORS
330
6E
102
}
330
6E
100
McDbContainer2
  0
McDbContainer2
  5
81
102
{ACAD_REACTORS
330
80
102
}
330
80
100
McDbContainer2
  0
McDbContainer2
  5
91
102
{ACAD_REACTORS
330
90
102
}
330
90
100
McDbContainer2
  0
McDbContainer2
  5
A1
102
{ACAD_REACTORS
330
A0
102
}
330
A0
100
McDbContainer2
  0
McDbContainer2
  5
B2
102
{ACAD_REACTORS
330
B1
102
}
330
B1
100
McDbContainer2
  0
McDbContainer2
  5
CA
102
{ACAD_REACTORS
330
C9
102
}
330
C9
100
McDbContainer2
  0
McDbContainer2
  5
E1
102
{ACAD_REACTORS
330
E0
102
}
330
E0
100
McDbContainer2
  0
McDbContainer2
  5
F9
102
{ACAD_REACTORS
330
F8
102
}
330
F8
100
McDbContainer2
  0
LAYOUT
  5
153
102
{ACAD_REACTORS
330
1D
330
1D
102
}
330
1D
100
AcDbPlotSettings
  1

  2
none_device
  4
ISO_A0_(1189.00_x_841.00_MM)
  6

 40
7.5
 41
20.0
 42
7.5
 43
20.0
 44
1189.0
 45
841.0
 46
0.0
 47
0.0
 48
0.0
 49
0.0
140
0.0
141
0.0
142
1.0
143
1.0
 70
   688
 72
     1
 73
     0
 74
     5
  7

 75
    16
 76
     0
 77
     2
 78
   300
147
1.0
148
0.0
149
0.0
100
AcDbLayout
  1
A0
 70
     0
 71
     7
 10
0.0
 20
0.0
 11
0.0
 21
0.0
 12
0.0
 22
0.0
 32
0.0
 14
0.0
 24
0.0
 34
0.0
 15
0.0
 25
0.0
 35
0.0
146
0.0
 13
0.0
 23
0.0
 33
0.0
 16
1.0
 26
0.0
 36
0.0
 17
0.0
 27
1.0
 37
0.0
 76
     0
330
150
331
154
  0
LAYOUT
  5
14E
102
{ACAD_REACTORS
330
1D
330
1D
102
}
330
1D
100
AcDbPlotSettings
  1

  2
none_device
  4
ISO_A1_(841.00_x_594.00_MM)
  6

 40
7.5
 41
20.0
 42
7.5
 43
20.0
 44
841.0
 45
594.0
 46
0.0
 47
0.0
 48
0.0
 49
0.0
140
0.0
141
0.0
142
1.0
143
1.0
 70
   688
 72
     1
 73
     0
 74
     5
  7

 75
    16
 76
     0
 77
     2
 78
   300
147
1.0
148
0.0
149
0.0
100
AcDbLayout
  1
A1
 70
     1
 71
     6
 10
-20.0
 20
-7.5
 11
277.0
 21
202.5
 12
0.0
 22
0.0
 32
0.0
 14
0.0
 24
0.0
 34
0.0
 15
0.0
 25
0.0
 35
0.0
146
0.0
 13
0.0
 23
0.0
 33
0.0
 16
1.0
 26
0.0
 36
0.0
 17
0.0
 27
1.0
 37
0.0
 76
     0
330
14B
331
14F
  0
LAYOUT
  5
148
102
{ACAD_REACTORS
330
1D
330
1D
102
}
330
1D
100
AcDbPlotSettings
  1

  2
none_device
  4
ISO_A2_(594.00_x_420.00_MM)
  6

 40
7.5
 41
20.0
 42
7.5
 43
20.0
 44
594.0
 45
420.0
 46
0.0
 47
0.0
 48
0.0
 49
0.0
140
0.0
141
0.0
142
1.0
143
1.0
 70
   688
 72
     1
 73
     0
 74
     5
  7

 75
    16
 76
     0
 77
     2
 78
   300
147
1.0
148
0.0
149
0.0
100
AcDbLayout
  1
A2
 70
     1
 71
     5
 10
0.0
 20
0.0
 11
0.0
 21
0.0
 12
0.0
 22
0.0
 32
0.0
 14
0.0
 24
0.0
 34
0.0
 15
0.0
 25
0.0
 35
0.0
146
0.0
 13
0.0
 23
0.0
 33
0.0
 16
1.0
 26
0.0
 36
0.0
 17
0.0
 27
1.0
 37
0.0
 76
     0
330
145
331
149
  0
LAYOUT
  5
11B
102
{ACAD_REACTORS
330
1D
330
1D
102
}
330
1D
100
AcDbPlotSettings
  1

  2
none_device
  4
ISO_A3_(420.00_x_297.00_MM)
  6

 40
7.5
 41
20.0
 42
7.5
 43
20.0
 44
420.0
 45
297.0
 46
0.0
 47
0.0
 48
0.0
 49
0.0
140
0.0
141
0.0
142
1.0
143
1.0
 70
   688
 72
     1
 73
     0
 74
     5
  7

 75
    16
 76
     0
 77
     2
 78
   300
147
1.0
148
0.0
149
0.0
100
AcDbLayout
  1
A3
 70
     1
 71
     4
 10
0.0
 20
0.0
 11
0.0
 21
0.0
 12
0.0
 22
0.0
 32
0.0
 14
0.0
 24
0.0
 34
0.0
 15
0.0
 25
0.0
 35
0.0
146
0.0
 13
0.0
 23
0.0
 33
0.0
 16
1.0
 26
0.0
 36
0.0
 17
0.0
 27
1.0
 37
0.0
 76
     0
330
118
331
11C
  0
LAYOUT
  5
115
102
{ACAD_REACTORS
330
1D
330
1D
102
}
330
1D
100
AcDbPlotSettings
  1

  2
none_device
  4
ISO_A4_(210.00_x_297.00_MM)
  6

 40
7.5
 41
20.0
 42
7.5
 43
20.0
 44
210.0
 45
297.0
 46
0.0
 47
0.0
 48
0.0
 49
0.0
140
0.0
141
0.0
142
1.0
143
1.0
 70
   688
 72
     1
 73
     0
 74
     5
  7

 75
    16
 76
     0
 77
     2
 78
   300
147
1.0
148
0.0
149
0.0
100
AcDbLayout
  1
A4
 70
     1
 71
     3
 10
0.0
 20
0.0
 11
0.0
 21
0.0
 12
0.0
 22
0.0
 32
0.0
 14
0.0
 24
0.0
 34
0.0
 15
0.0
 25
0.0
 35
0.0
146
0.0
 13
0.0
 23
0.0
 33
0.0
 16
1.0
 26
0.0
 36
0.0
 17
0.0
 27
1.0
 37
0.0
 76
     0
330
112
331
116
  0
LAYOUT
  5
26
102
{ACAD_REACTORS
330
1D
330
1D
102
}
102
{ACAD_XDICTIONARY
360
27
102
}
330
1D
100
AcDbPlotSettings
  1

  2
PDFCreator
  4
USER9
  6

 40
0.0
 41
0.042333
 42
0.0
 43
0.0
 44
210.0
 45
297.0
 46
0.0
 47
0.0
 48
0.0
 49
0.0
140
0.0
141
0.0
142
1.0
143
1.0
 70
   752
 72
     1
 73
     1
 74
     5
  7

 75
    16
 76
     0
 77
     2
 78
   300
147
1.0
148
0.0
149
0.0
100
AcDbLayout
  1
Layout1
 70
     0
 71
     1
 10
0.0
 20
0.0
 11
12.0
 21
9.0
 12
0.0
 22
0.0
 32
0.0
 14
0.0
 24
0.0
 34
0.0
 15
0.0
 25
0.0
 35
0.0
146
0.0
 13
0.0
 23
0.0
 33
0.0
 16
1.0
 26
0.0
 36
0.0
 17
0.0
 27
1.0
 37
0.0
 76
     0
330
21
331
107
  0
LAYOUT
  5
10F
102
{ACAD_REACTORS
330
1D
330
1D
102
}
330
1D
100
AcDbPlotSettings
  1

  2
none_device
  4
ISO_A4_(210.00_x_297.00_MM)
  6

 40
7.5
 41
20.0
 42
7.5
 43
20.0
 44
210.0
 45
297.0
 46
0.0
 47
0.0
 48
0.0
 49
0.0
140
0.0
141
0.0
142
1.0
143
1.0
 70
   688
 72
     1
 73
     1
 74
     5
  7

 75
    16
 76
     0
 77
     2
 78
   300
147
1.0
148
0.0
149
0.0
100
AcDbLayout
  1
Layout2
 70
     0
 71
     2
 10
-20.0
 20
-7.5
 11
277.0
 21
202.5
 12
0.0
 22
0.0
 32
0.0
 14
0.0
 24
0.0
 34
0.0
 15
0.0
 25
0.0
 35
0.0
146
0.0
 13
0.0
 23
0.0
 33
0.0
 16
1.0
 26
0.0
 36
0.0
 17
0.0
 27
1.0
 37
0.0
 76
     0
330
10C
331
110
  0
LAYOUT
  5
1C
102
{ACAD_REACTORS
330
1D
330
1D
102
}
102
{ACAD_XDICTIONARY
360
1E
102
}
330
1D
100
AcDbPlotSettings
  1

  2
none_device
  4
ISO_A4_(210.00_x_297.00_MM)
  6

 40
7.5
 41
20.0
 42
7.5
 43
20.0
 44
210.0
 45
297.0
 46
0.0
 47
0.0
 48
0.0
 49
0.0
140
0.0
141
0.0
142
1.0
143
3.249677
 70
 11952
 72
     1
 73
     0
 74
     0
  7

 75
     0
 76
     0
 77
     2
 78
   300
147
0.307723
148
0.0
149
0.0
100
AcDbLayout
  1
Model
 70
     1
 71
     0
 10
0.0
 20
0.0
 11
420.0
 21
297.0
 12
0.0
 22
0.0
 32
0.0
 14
0.0
 24
0.0
 34
0.0
 15
0.0
 25
0.0
 35
0.0
146
0.0
 13
0.0
 23
0.0
 33
0.0
 16
1.0
 26
0.0
 36
0.0
 17
0.0
 27
1.0
 37
0.0
 76
     0
330
16
331
30
1001
ACAD_PSEXT
1000
None
1000
None
1000
Not applicable
1000
The layout will not be plotted unless a new plotter configuration name is selected.
1070
     0
  0
MATERIAL
  5
5A
102
{ACAD_REACTORS
330
7
102
}
330
7
100
AcDbMaterial
  1
ByBlock
 72
     1
 73
     2
 78
     2
172
     2
176
     2
270
     2
274
     2
 94
       63
  0
MATERIAL
  5
10
102
{ACAD_REACTORS
330
7
102
}
330
7
100
AcDbMaterial
  1
ByLayer
 72
     1
 73
     2
 78
     2
172
     2
176
     2
270
     2
274
     2
 94
       63
  0
MATERIAL
  5
6
102
{ACAD_REACTORS
330
7
102
}
330
7
100
AcDbMaterial
  1
Global
 72
     1
 73
     2
 43
0.0008
 43
0.0
 43
0.0
 43
0.0
 43
0.0
 43
0.0008
 43
0.0
 43
0.0
 43
0.0
 43
0.0
 43
1.0
 43
0.0
 43
0.0
 43
0.0
 43
0.0
 43
1.0
 78
     2
172
     2
 49
0.0008
 49
0.0
 49
0.0
 49
0.0
 49
0.0
 49
0.0008
 49
0.0
 49
0.0
 49
0.0
 49
0.0
 49
1.0
 49
0.0
 49
0.0
 49
0.0
 49
0.0
 49
1.0
176
     2
142
0.0008
142
0.0
142
0.0
142
0.0
142
0.0
142
0.0008
142
0.0
142
0.0
142
0.0
142
0.0
142
1.0
142
0.0
142
0.0
142
0.0
142
0.0
142
1.0
270
     2
144
0.0008
144
0.0
144
0.0
144
0.0
144
0.0
144
0.0008
144
0.0
144
0.0
144
0.0
144
0.0
144
1.0
144
0.0
144
0.0
144
0.0
144
0.0
144
1.0
274
     2
 94
       63
1001
ACAD
1070
    -1
1070
     3
1070
     0
1000

1071
        0
1070
     0
  0
MLINESTYLE
  5
13
102
{ACAD_REACTORS
330
14
102
}
330
14
100
AcDbMlineStyle
  2
STANDARD
 70
     0
  3

 62
   256
 51
90.0
 52
90.0
 71
     2
 49
0.5
 62
   256
  6
BYLAYER
 49
-0.5
 62
   256
  6
BYLAYER
  0
ACDBPLACEHOLDER
  5
3
102
{ACAD_REACTORS
330
4
102
}
330
4
  0
SCALE
  5
59
102
{ACAD_REACTORS
330
37
102
}
330
37
100
AcDbScale
 70
     0
300
1:1
140
1.0
141
1.0
290
     1
  0
VISUALSTYLE
  5
10A
102
{ACAD_REACTORS
330
2F
102
}
330
2F
100
AcDbVisualStyle
  2
2dWireframe
 70
     4
177
     3
291
     0
 70
    58
 90
        0
176
     1
 90
        2
176
     1
 90
        1
176
     1
 90
        0
176
     1
 40
-0.6
176
     1
 40
-30.0
176
     1
 62
     7
420
 16777215
176
     1
 90
        1
176
     1
 90
        4
176
     1
 62
     7
176
     1
 62
   257
176
     1
 90
        1
176
     1
 90
        1
176
     1
 40
1.0
176
     1
 90
        0
176
     1
 62
   257
176
     1
 40
1.0
176
     1
 90
        1
176
     1
 90
        6
176
     1
 90
        2
176
     1
 62
     7
176
     1
 90
        5
176
     1
 90
        0
176
     1
 90
        0
176
     1
290
     0
176
     1
 90
        1
176
     1
 40
0.0
176
     1
 90
        0
176
     1
290
     1
176
     1
290
     1
176
     1
290
     0
176
     1
290
     0
176
     1
290
     0
176
     1
290
     0
176
     1
290
     0
176
     1
290
     0
176
     1
290
     0
176
     1
 90
       50
176
     1
 40
0.0
176
     1
 40
1.0
176
     1
 90
        0
176
     1
 62
    18
420
        0
176
     1
 90
       50
176
     1
 90
        3
176
     1
 62
     5
420
      255
176
     1
290
     0
176
     1
 90
       50
176
     1
 90
       50
176
     1
 90
       50
176
     1
290
     0
176
     1
 90
       50
176
     1
 62
   256
176
     0
 40
1.0
176
     0
 90
        2
176
     1
  1
strokes_ogs.tif
176
     1
290
     0
176
     1
 40
1.0
176
     1
 40
1.0
176
     1
  0
DICTIONARYVAR
  5
15B
102
{ACAD_REACTORS
330
15A
102
}
330
15A
100
DictionaryVariables
280
     0
  1
1:1
  0
DICTIONARYVAR
  5
15E
102
{ACAD_REACTORS
330
15A
102
}
330
15A
100
DictionaryVariables
280
     0
  1
0
  0
XRECORD
  5
158
102
{ACAD_REACTORS
330
155
102
}
330
155
100
AcDbXrecord
280
     1
300
MC_VERSION_DATA
 90
       95
310
0600000002000000570000001C000000E204000000000000000000007801936764E5D8CF7A8393818115C460606066E0646662626666706006F214793899F8DE3171E725E6E53B3BBA2878E6951050AF75FEFFFFFF520032DE0F3057000000
  0
XRECORD
  5
156
102
{ACAD_REACTORS
330
155
102
}
330
155
100
AcDbXrecord
280
     1
300
MCS_DOCUMENT_ID
 90
       60
310
0600000002000000150000001C000000E204000000000000000000007801E3E56F3C5D651C7EDB63E6931E4356ED254EFF81000062C60ADC15000000
  0
DICTIONARY
  5
27
330
26
100
AcDbDictionary
280
     1
281
     1
  3
CSD_PLOT_CONFIG
360
28
  0
DICTIONARY
  5
1E
330
1C
100
AcDbDictionary
280
     1
281
     1
  3
CSD_PLOT_CONFIG
360
1F
  0
LAYOUTPRINTCONFIG
  5
28
102
{ACAD_REACTORS
330
27
102
}
330
27
100
AcDbEntity
  8
0
160
                 8
310
0800000000000000
100
CAcLayoutPrintConfig
 93
        0
  0
LAYOUTPRINTCONFIG
  5
1F
102
{ACAD_REACTORS
330
1E
102
}
330
1E
100
AcDbEntity
  8
0
160
                 8
310
0800000000000000
100
CAcLayoutPrintConfig
 93
        0
  0
ENDSEC
  0
EOF
